Latest download & stream reports

2003 results - showing 21 - 40  
« 1 2 3 4 5 6 ... »  
 
Polaroid.2019.HDRip.XviD.AC3-EVO
Listing: Polaroid
Submitted by: Mr. Meeseeks
Submitted on: May 10, 2019
SOURCE: iTunes :) ViDEO: 1700 Kbps RESOLUTiON: 720x304 RUNTiME: 1h 28m 43s SUBTiTLES: No. AUDiO: 384 Kbps AC3 5.1 LANGUAGE: ENGLiSH ENCODER: DdHD
The.Haunting.of.Sharon.Tate.2019.1080p.BluRay.REMUX.AVC.DTS-HD.MA.5.1-FGT
Submitted by: Mr. Meeseeks
Submitted on: May 10, 2019
Video ID : 1 Format : AVC Format/Info : Advanced Video Codec Format profile : [email protected] Format settings : CABAC / 4 Ref Frames Format settings, CABAC : Yes Format settings, ReFrames : 4 frames Codec ID : V_MPEG4/ISO/AVC Duration : 1 h 29 min Bit rate mode : Variable Bit rate : 20.0 Mb/s Maximum bit rate : 35.0 Mb/s Width : 1 920 pixels Height : 1 080 pixels Display aspect ratio : 16:9 Frame rate mode : Constant Frame rate : 23.976 (24000/1001) FPS Color space : YUV Chroma subsampling : 4:2:0 Bit depth : 8 bits Scan type : Progressive Bits/(Pixel*Frame) : 0.402 Stream size : 12.5 GiB (91%) Title : The.Haunting.of.Sharon.Tate.2019.1080p.BluRay.REMUX.AVC.DTS-HD.MA.5.1-FGT Language : English Default : No Forced : No Color range : Limited Color primaries : BT.709 Transfer characteristics : BT.709 Matrix coefficients : BT.709 Audio ID : 2 Format : DTS XLL Format/Info : Digital Theater Systems Commercial name : DTS-HD Master Audio Codec ID : A_DTS Duration : 1 h 29 min Bit rate mode : Variable Bit rate : 1 983 kb/s Channel(s) : 6 channels Channel layout : C L R Ls Rs LFE Sampling rate : 48.0 kHz Frame rate : 93.750 FPS (512 SPF) Bit depth : 16 bits Compression mode : Lossless Stream size : 1.24 GiB (9%) Title : The.Haunting.of.Sharon.Tate.2019.1080p.BluRay.REMUX.AVC.DTS-HD.MA.5.1-FGT Language : English Default : Yes Forced : No
Isnt.It.Romantic.2019.720p.BluRay.x264-GECKOS
Submitted by: Mr. Meeseeks
Submitted on: May 10, 2019
Date : 09.05.2019 URL : https://www.imdb.com/title/tt2452244 X264 bitrate : 5575Kbps Resolution : 1280x536 Size : 4475MB (4692316379 Bytes) Audio : DTS 1509Kbps 6ch Language : English Subtitles : English Runtime : 1h 28mn
Never.Grow.Old.2019.720p.BluRay.x264-ROVERS
Listing: Never Grow Old
Submitted by: Mr. Meeseeks
Submitted on: May 10, 2019
Date......: 09.05.2019 Video.....: X264 @ 4732Kbps FPS.......: 23.976 Resolution: 1280x536 Size......: 4475MB (4691888647 Bytes) Audio.....: DTS 1509Kbps 6ch Language..: English Subtitles.: English Runtime...: 1h 40mn
Pet Sematary 2019 1080p HC HDRip X264-EVO
Listing: Pet Sematary
Submitted by: Mojib
Submitted on: May 08, 2019
Very good, but with Chinese subtitles hardcoded.
Foster.2018.WEBRip.x264-ION10
Listing: Foster
Submitted by: Mr. Meeseeks
Submitted on: May 08, 2019
Video ID : 1 Format : AVC Format/Info : Advanced Video Codec Format profile : [email protected] Format settings : CABAC / 5 Ref Frames Format settings, CABAC : Yes Format settings, ReFrames : 5 frames Codec ID : avc1 Codec ID/Info : Advanced Video Coding Duration : 1 h 53 min Bit rate : 1 100 kb/s Width : 720 pixels Height : 400 pixels Display aspect ratio : 16:9 Frame rate mode : Constant Frame rate : 23.976 (24000/1001) FPS Color space : YUV Chroma subsampling : 4:2:0 Bit depth : 8 bits Scan type : Progressive Bits/(Pixel*Frame) : 0.159 Stream size : 894 MiB (81%) Title : RARBG - Foster.2018.WEBRip.x264-ION10 Writing library : x264 core 152 r2851M ba24899 Encoding settings : cabac=1 / ref=5 / deblock=1:-1:-1 / analyse=0x3:0x113 / me=umh / subme=9 / psy=1 / psy_rd=1.00:0.15 / mixed_ref=1 / me_range=16 / chroma_me=1 / trellis=2 / 8x8dct=1 / cqm=0 / deadzone=21,11 / fast_pskip=1 / chroma_qp_offset=-3 / threads=16 / lookahead_threads=1 / sliced_threads=0 / nr=0 / decimate=1 / interlaced=0 / bluray_compat=0 / constrained_intra=0 / bframes=3 / b_pyramid=2 / b_adapt=2 / b_bias=0 / direct=3 / weightb=1 / open_gop=0 / weightp=2 / keyint=250 / keyint_min=23 / scenecut=40 / intra_refresh=0 / rc_lookahead=50 / rc=2pass / mbtree=1 / bitrate=1100 / ratetol=1.0 / qcomp=0.60 / qpmin=0 / qpmax=69 / qpstep=4 / cplxblur=20.0 / qblur=0.5 / ip_ratio=1.40 / aq=1:1.00 Encoded date : UTC 2019-05-08 08:03:02 Tagged date : UTC 2019-05-08 08:03:02 Codec configuration box : avcC Audio ID : 2 Format : AAC LC Format/Info : Advanced Audio Codec Low Complexity Codec ID : mp4a-40-2 Duration : 1 h 53 min Bit rate mode : Constant Bit rate : 256 kb/s Channel(s) : 2 channels Channel layout : L R Sampling rate : 48.0 kHz Frame rate : 46.875 FPS (1024 SPF) Compression mode : Lossy Stream size : 208 MiB (19%) Title : RARBG - Foster.2018.WEBRip.x264-ION10 Language : English Default : Yes Alternate group : 1 Encoded date : UTC 2019-05-08 08:03:02 Tagged date : UTC 2019-05-08 08:03:02
Bolden.2019.1080p.WEB-DL.H264.AC3-EVO
Listing: Bolden
Submitted by: Ивана
Submitted on: May 08, 2019
Duration: 1h 41min Resolution: 1920x1038 Language: English
How.High.2.2019.1080p.HDTV.x264-CRiMSON
Listing: How High 2
Submitted by: Mr. Meeseeks
Submitted on: May 07, 2019
Container = Matroska (mkv) Duration = 01:24:35.010 Filesize = 7 GiB Overall bitrate = 11.7 Mb/s ViDEO Codec info = AVC [email protected] | V_MPEG4/ISO/AVC Resolution = 1920x1080 Display AR = 1.778 | 16:9 Bitrate = 11.4 Mb/s Framerate = CFR 23.976 Color space = YUV Chroma subsampling = 4:2:0 Encoder = x264 - core 157 r2969 d4099dd AUDiO Codec info = AC-3 | A_AC3 Channels = 6 Bitrate = CBR 384 kb/s Samplerate = 48.0 kHz Language = English
Rattlesnakes.2019.1080p.AMZN.WEBRip.DDP5.1.x264-NTG
Listing: Rattlesnakes
Submitted by: Ивана
Submitted on: May 06, 2019
Duration: 1h 25min Resolution: 1920x1080 Language: English
Peel.2019.HDRip.XviD.AC3-EVO
Listing: Peel
Submitted by: Mr. Meeseeks
Submitted on: May 06, 2019
ViDEO: 1700 Kbps RESOLUTiON: 720x384 RUNTiME: 1h 41m 43s SUBTiTLES: No. AUDiO: 384 Kbps AC3 5.1 LANGUAGE: ENGLiSH ENCODER: DdHD
A.Land.Imagined.2018.CHINESE.720p.NF.WEBRip.DDP5.1.x264-NTG
Listing: A Land Imagined
Submitted by: nihudob
Submitted on: May 05, 2019
720p | 1.98 GB | Chinese language + 30 internal subs
The.Prodigy.2019.1080p.Bluray.X264-EVO
Listing: The Prodigy
Submitted by: Tobden
Submitted on: May 05, 2019
http://www.imdb.com/title/tt4504044/ [Video Bitrate]:.............: 13.1mb/s [Duration]:.............: 1 h 31 min [Video Codec]:.............: AVC [Resolution]:.............: 1920x800 px [Aspect Ratio]:.............: 2.40:1 [Audio Codec]:.............: DTS [Audio Bitrate]:.............: 1509kb/s [Audio Channels]:.............: 5.1ch [Audio Language]:.............: English
Long Shot 2019 HDCAM x264 AC3-ETRG
Listing: Long Shot
Submitted by: Mojib
Submitted on: May 05, 2019
One of many 1xbet casino branded torrents.
The.Upside.2019.1080p.BluRay.DD5.1.X264-CMRG
Listing: The Upside
Submitted by: Tobden
Submitted on: May 05, 2019
IMDB URL: http://www.imdb.com/title/tt1987680/ [Video Bitrate]:.............: 11.0mb/s [Duration]:.............: 2 h 5 min [Video Codec]:.............: AVC [Resolution]:.............: 1920x1036 px [Aspect Ratio]:.............: 1.85:1 [Audio Codec]:.............: AC-3 [Audio Bitrate]:.............: 640kb/s [Audio Channels]:.............: 5.1ch [Audio Language]:.............: English
Tolkien 2019 720p HDCAM-1XBET
Listing: Tolkien
Submitted by: Ивана
Submitted on: May 05, 2019
Duration: 1h 47min Resolution: 1280x536 Language: English
Cold.Pursuit.2019.1080p.BluRay.x264-GECKOS
Listing: Cold Pursuit
Submitted by: Mr. Meeseeks
Submitted on: May 04, 2019
X264 bitrate : 8564Kbps Resolution : 1920x800 Size : 7834MB (8214556016 Bytes) Audio : AC-3 640Kbps 6ch Language : English Subtitles : English Runtime : 1h 59mn
Fighting.with.My.Family.2019.1080p.BluRay.x264-GECKOS
Submitted by: Mr. Meeseeks
Submitted on: May 04, 2019
X264 bitrate : 8588Kbps Resolution : 1920x800 Size : 7826MB (8206360390 Bytes) Audio : DTS 1509Kbps 6ch Language : English Subtitles : English Runtime : 1h 48mn
Happy.Death.Day.2U.2019.1080p.BluRay.x264-DRONES
Submitted by: Mr. Meeseeks
Submitted on: May 04, 2019
Visual : 1920x808 9452kbps 23.976 Acoustic : English DTS 1509kbps 6ch Textual : English SDH Target Size : 7827MB
Apollo.11.2019.720p.BluRay.x264-DRONES
Listing: Apollo 11
Submitted by: Mr. Meeseeks
Submitted on: May 04, 2019
[Video Bitrate]:.............: 6722 kbps [Duration]:.............: 1h 33mn [Video Codec]:.............: AVC [Resolution]:.............: 1280x584 px [Aspect Ratio]:.............: 2.2:1 [Audio Codec]:.............: DTS [Audio Bitrate]:.............: 1509 kbps [Audio Channels]:.............: 5.1ch [Audio Language]:.............: English
Hotel Mumbai 2019 720p HDCAM-1XBET
Listing: Hotel Mumbai
Submitted by: Ивана
Submitted on: May 04, 2019
Duration: 1h 41min Resolution: 1280x536 Language: English
2003 results - showing 21 - 40  
« 1 2 3 4 5 6 ... »