Latest download & stream reports

2230 results - showing 21 - 40  
« 1 2 3 4 5 6 ... »  
 
JT.LeRoy.2018.1080p.BluRay.x264-BiPOLAR
Submitted by: Mr. Meeseeks
Submitted on: July 17, 2019
Video ID : 1 Format : AVC Format/Info : Advanced Video Codec Format profile : [email protected] Format settings : CABAC / 5 Ref Frames Format settings, CABAC : Yes Format settings, Reference frames : 5 frames Codec ID : V_MPEG4/ISO/AVC Duration : 1 h 48 min Bit rate : 8 574 kb/s Width : 1 920 pixels Height : 808 pixels Display aspect ratio : 2.40:1 Frame rate mode : Constant Frame rate : 23.976 (24000/1001) FPS Color space : YUV Chroma subsampling : 4:2:0 Bit depth : 8 bits Scan type : Progressive Bits/(Pixel*Frame) : 0.231 Stream size : 6.50 GiB (85%) Writing library : x264 core 157 r2969 d4099dd Encoding settings : cabac=1 / ref=5 / deblock=1:-3:-3 / analyse=0x3:0x133 / me=umh / subme=9 / psy=1 / psy_rd=1.00:0.00 / mixed_ref=1 / me_range=16 / chroma_me=1 / trellis=2 / 8x8dct=1 / cqm=0 / deadzone=21,11 / fast_pskip=0 / chroma_qp_offset=-2 / threads=18 / lookahead_threads=1 / sliced_threads=0 / nr=0 / decimate=1 / interlaced=0 / bluray_compat=0 / constrained_intra=0 / bframes=3 / b_pyramid=2 / b_adapt=1 / b_bias=0 / direct=3 / weightb=1 / open_gop=0 / weightp=2 / keyint=240 / keyint_min=24 / scenecut=40 / intra_refresh=0 / rc_lookahead=50 / rc=2pass / mbtree=1 / bitrate=8574 / ratetol=1.0 / qcomp=0.60 / qpmin=0 / qpmax=69 / qpstep=4 / cplxblur=20.0 / qblur=0.5 / ip_ratio=1.40 / aq=1:1.00 Language : English Default : Yes Forced : No Audio ID : 2 Format : DTS Format/Info : Digital Theater Systems Codec ID : A_DTS Duration : 1 h 48 min Bit rate mode : Constant Bit rate : 1 509 kb/s Channel(s) : 6 channels Channel layout : C L R Ls Rs LFE Sampling rate : 48.0 kHz Frame rate : 93.750 FPS (512 SPF) Bit depth : 24 bits Compression mode : Lossy Stream size : 1.15 GiB (15%) Language : English Default : Yes Forced : No Text #1 ID : 3 Format : UTF-8 Codec ID : S_TEXT/UTF8 Codec ID/Info : UTF-8 Plain Text Duration : 1 h 47 min Bit rate : 61 b/s Count of elements : 1379 Stream size : 48.3 KiB (0%) Title : English Language : English Default : No Forced : No Text #2 ID : 4 Format : UTF-8 Codec ID : S_TEXT/UTF8 Codec ID/Info : UTF-8 Plain Text Duration : 1 h 47 min Bit rate : 65 b/s Count of elements : 1460 Stream size : 51.4 KiB (0%) Title : English SDH Language : English Default : No Forced : No
Q.Ball.2019.720p.WEBRip.800MB.x264-GalaxyRG
Listing: Q Ball
Submitted by: Mr. Meeseeks
Submitted on: July 16, 2019
Container = Matroska (mkv) Duration = 01:35:52.149 Filesize = 798 MiB Overall bitrate = 1 164 kb/s Video Codec info = AVC [email protected] | V_MPEG4/ISO/AVC Resolution = 1280x720 Display AR = 1.778 | 16:9 Bitrate = Framerate = VFR Color space = YUV Chroma subsampling = 4:2:0 Encoder = x264 - core 148 r2748 97eaef2 Audio Codec info = AAC LC | A_AAC Channels = 2 Bitrate = Samplerate = 48.0 kHz Language = English
Family.2018.1080p.WEB-DL.DD5.1.H264-FGT
Listing: Family
Submitted by: Mr. Meeseeks
Submitted on: July 16, 2019
Video ID : 1 Format : AVC Format/Info : Advanced Video Codec Format profile : [email protected] Format settings : CABAC / 5 Ref Frames Format settings, CABAC : Yes Format settings, Reference frames : 5 frames Codec ID : V_MPEG4/ISO/AVC Duration : 1 h 26 min Bit rate : 4 582 kb/s Width : 1 916 pixels Height : 794 pixels Display aspect ratio : 2.40:1 Frame rate mode : Constant Frame rate : 23.976 (23976/1000) FPS Color space : YUV Chroma subsampling : 4:2:0 Bit depth : 8 bits Scan type : Progressive Bits/(Pixel*Frame) : 0.126 Stream size : 2.75 GiB (92%) Title : Family.2018.1080p.WEB-DL.DD5.1.H264-FGT Language : English Default : Yes Forced : No Color range : Limited Color primaries : BT.709 Transfer characteristics : BT.709 Matrix coefficients : BT.709 Audio ID : 2 Format : AC-3 Format/Info : Audio Coding 3 Commercial name : Dolby Digital Codec ID : A_AC3 Duration : 1 h 26 min Bit rate mode : Constant Bit rate : 384 kb/s Channel(s) : 6 channels Channel layout : L R C LFE Ls Rs Sampling rate : 48.0 kHz Frame rate : 31.250 FPS (1536 SPF) Bit depth : 16 bits Compression mode : Lossy Stream size : 236 MiB (8%) Title : Family.2018.1080p.WEB-DL.DD5.1.H264-FGT Language : English Service kind : Complete Main Default : Yes Forced : No Text ID : 3 Format : UTF-8 Codec ID : S_TEXT/UTF8 Codec ID/Info : UTF-8 Plain Text Duration : 1 h 25 min Bit rate : 119 b/s Count of elements : 1670 Stream size : 74.3 KiB (0%) Language : English Default : Yes Forced : No
UglyDolls.2019.720p.WEBRip.800MB.x264-GalaxyRG
Listing: Uglydolls
Submitted by: Costa
Submitted on: July 16, 2019
MEDIAINFO Container = Matroska (mkv) Duration = 01:27:26.229 Filesize = 797 MiB Overall bitrate = 1 275 kb/s Video Codec info = AVC [email protected] | V_MPEG4/ISO/AVC Resolution = 1280x688 Display AR = 1.846 | 1.85:1 Bitrate = Framerate = VFR Color space = YUV Chroma subsampling = 4:2:0 Encoder = x264 - core 148 r2748 97eaef2 Audio Codec info = AAC LC | A_AAC Channels = 2 Bitrate = Samplerate = 48.0 kHz Language = English
The.Curse.of.La.Llorona.2019.720p.WEBRip.800MB.x264-GalaxyRG
Submitted by: Costa
Submitted on: July 16, 2019
MEDIAINFO Container = Matroska (mkv) Duration = 01:33:12.181 Filesize = 797 MiB Overall bitrate = 1 196 kb/s Video Codec info = AVC [email protected] | V_MPEG4/ISO/AVC Resolution = 1280x544 Display AR = 2.388 | 2.40:1 Bitrate = Framerate = VFR Color space = YUV Chroma subsampling = 4:2:0 Encoder = x264 - core 148 r2748 97eaef2 Audio Codec info = AAC LC | A_AAC Channels = 2 Bitrate = Samplerate = 48.0 kHz Language = English
Long.Shot.2019.720p.WEBRip.800MB.x264-GalaxyRG
Listing: Long Shot
Submitted by: Costa
Submitted on: July 16, 2019
MEDIAINFO Container = Matroska (mkv) Duration = 02:04:55.551 Filesize = 798 MiB Overall bitrate = 893 kb/s Video Codec info = AVC [email protected] | V_MPEG4/ISO/AVC Resolution = 1280x528 Display AR = 2.400 | 2.40:1 Bitrate = Framerate = VFR Color space = YUV Chroma subsampling = 4:2:0 Encoder = x264 - core 148 r2748 97eaef2 Audio Codec info = AAC LC | A_AAC Channels = 2 Bitrate = Samplerate = 48.0 kHz Language = English
Hellboy.2019.1080p.Bluray.X264-EVO[TGx]
Listing: Hellboy
Submitted by: Costa
Submitted on: July 16, 2019
MEDIAINFO Container = Matroska (mkv) Duration = 02:01:00.352 Filesize = 10 GiB Overall bitrate = 12.3 Mb/s Video Codec info = AVC [email protected] | V_MPEG4/ISO/AVC Resolution = 1920x800 Display AR = 2.400 | 2.40:1 Bitrate = 11.4 Mb/s Framerate = CFR 23.976 Color space = YUV Chroma subsampling = 4:2:0 Encoder = x264 - core 142 r2479 dd79a61 Audio Codec info = AC-3 | A_AC3 Channels = 6 Bitrate = CBR 640 kb/s Samplerate = 48.0 kHz Language = English
Poms.2019.1080p.NF.WEBRip.DDP5.1.x264-NTG
Listing: POMS
Submitted by: Mr. Meeseeks
Submitted on: July 15, 2019
Video ID : 1 Format : AVC Format/Info : Advanced Video Codec Format profile : [email protected] Format settings : CABAC / 3 Ref Frames Format settings, CABAC : Yes Format settings, Reference frames : 3 frames Codec ID : V_MPEG4/ISO/AVC Duration : 1 h 30 min Bit rate mode : Variable Bit rate : 5 360 kb/s Maximum bit rate : 8 040 kb/s Width : 1 920 pixels Height : 1 080 pixels Display aspect ratio : 16:9 Frame rate mode : Constant Frame rate : 24.000 FPS Color space : YUV Chroma subsampling : 4:2:0 Bit depth : 8 bits Scan type : Progressive Bits/(Pixel*Frame) : 0.108 Stream size : 3.35 GiB (89%) Writing library : x264 core 148 r2715 7e75228 Encoding settings : cabac=1 / ref=3 / deblock=1:0:0 / analyse=0x1:0x111 / me=umh / subme=10 / psy=1 / psy_rd=1.00:0.00 / mixed_ref=1 / me_range=24 / chroma_me=1 / trellis=2 / 8x8dct=0 / cqm=0 / deadzone=21,11 / fast_pskip=1 / chroma_qp_offset=-2 / threads=6 / lookahead_threads=1 / sliced_threads=0 / nr=0 / decimate=1 / interlaced=0 / bluray_compat=0 / stitchable=1 / constrained_intra=0 / bframes=2 / b_pyramid=0 / b_adapt=2 / b_bias=0 / direct=3 / weightb=1 / open_gop=0 / weightp=2 / keyint=250 / keyint_min=24 / scenecut=0 / intra_refresh=0 / rc_lookahead=48 / rc=2pass / mbtree=1 / bitrate=5360 / ratetol=1.0 / qcomp=0.50 / qpmin=6 / qpmax=51 / qpstep=4 / cplxblur=20.0 / qblur=0.5 / vbv_maxrate=8040 / vbv_bufsize=10720 / nal_hrd=vbr / filler=0 / ip_ratio=1.40 / aq=1:1.00 Default : Yes Forced : No Audio ID : 2 Format : E-AC-3 Format/Info : Enhanced AC-3 Commercial name : Dolby Digital Plus Codec ID : A_EAC3 Duration : 1 h 30 min Bit rate mode : Constant Bit rate : 640 kb/s Channel(s) : 6 channels Channel layout : L R C LFE Ls Rs Sampling rate : 48.0 kHz Frame rate : 31.250 FPS (1536 SPF) Compression mode : Lossy Stream size : 414 MiB (11%) Title : English Language : English Service kind : Complete Main Default : Yes Forced : No Text #1 ID : 3 Format : UTF-8 Codec ID : S_TEXT/UTF8 Codec ID/Info : UTF-8 Plain Text Duration : 1 h 27 min Bit rate : 82 b/s Count of elements : 1772 Stream size : 52.7 KiB (0%) Language : English Default : No Forced : No Text #2 ID : 4 Format : UTF-8 Codec ID : S_TEXT/UTF8 Codec ID/Info : UTF-8 Plain Text Duration : 1 h 27 min Bit rate : 91 b/s Count of elements : 1984 Stream size : 58.5 KiB (0%) Title : SDH Language : English Default : No Forced : No Text #3 ID : 5 Format : UTF-8 Codec ID : S_TEXT/UTF8 Codec ID/Info : UTF-8 Plain Text Duration : 1 h 29 min Bit rate : 66 b/s Count of elements : 1372 Stream size : 43.4 KiB (0%) Language : French Default : No Forced : No
The.Intruder.2019.1080p.WEB-DL.DD5.1.H264-FGT
Listing: The Intruder
Submitted by: Cupio Dissolvi
Submitted on: July 14, 2019
MediaInfo « Video ID : 1 Format : AVC Format/Info : Advanced Video Codec Format profile : [email protected] Format settings : CABAC / 5 Ref Frames Format settings, CABAC : Yes Format settings, Reference frames : 5 frames Codec ID : V_MPEG4/ISO/AVC Duration : 1 h 42 min Bit rate : 4 518 kb/s Width : 1 920 pixels Height : 790 pixels Display aspect ratio : 2.40:1 Frame rate mode : Constant Frame rate : 23.976 (24000/1001) FPS Color space : YUV Chroma subsampling : 4:2:0 Bit depth : 8 bits Scan type : Progressive Bits/(Pixel*Frame) : 0.124 Stream size : 3.22 GiB (92%) Title : The.Intruder.2019.1080p.WEB-DL.DD5.1.H264-FGT Language : English Default : Yes Forced : No Color range : Limited Color primaries : BT.709 Transfer characteristics : BT.709 Matrix coefficients : BT.709 Audio ID : 2 Format : AC-3 Format/Info : Audio Coding 3 Commercial name : Dolby Digital Codec ID : A_AC3 Duration : 1 h 42 min Bit rate mode : Constant Bit rate : 384 kb/s Channel(s) : 6 channels Channel layout : L R C LFE Ls Rs Sampling rate : 48.0 kHz Frame rate : 31.250 FPS (1536 SPF) Bit depth : 16 bits Compression mode : Lossy Stream size : 280 MiB (8%) Title : The.Intruder.2019.1080p.WEB-DL.DD5.1.H264-FGT Language : English Service kind : Complete Main Default : Yes Forced : No Menu 00:00:00.000 : en:1 00:05:59.275 : en:2 00:12:51.312 : en:3 00:17:12.239 : en:4 00:25:28.360 : en:5 00:32:56.683 : en:6 00:36:17.592 : en:7 00:41:54.595 : en:8 00:50:14.177 : en:9 00:55:52.640 : en:10 00:58:29.880 : en:11 01:08:55.505 : en:12 01:14:02.562 : en:13 01:18:21.737 : en:14 01:25:18.028 : en:15 01:32:08.063 : en:16 Trailer: Play trailer
Missing.Link.2019.1080p.BluRay.x264-AAA
Listing: Missing Link
Submitted by: Tobden
Submitted on: July 14, 2019
Date : 07/2019 Source : Bluray Video : 1920x800 @ 23.976 fps - 5 980 kb/s Runtime : 1 h 34 min Audio : English Dolby Digital 6 channels @ 640 kb/s Size : 4.37 GiB Subs : English (full, Forced) Link : https://www.imdb.com/title/tt6348138 PG Rating: PG IMDB Rating: 6.9/10 from 4190 users Updated : 2019-07-14 Metacritic: 68 Genres: Animation , Adventure , Comedy , Family , Fantasy
Stuber.2019.720p.HDCAM.900MB.1xbet.x264-BONSAI[TGx]
Listing: Stuber
Submitted by: Costa
Submitted on: July 13, 2019
MEDIAINFO Container = Matroska (mkv) Duration = 01:27:00.021 Filesize = 896 MiB Overall bitrate = 1 440 kb/s Video Codec info = AVC [email protected] | V_MPEG4/ISO/AVC Resolution = 1280x544 Display AR = 2.388 | 2.40:1 Bitrate = Framerate = VFR Color space = YUV Chroma subsampling = 4:2:0 Encoder = x264 - core 148 r2748 97eaef2 Audio Codec info = AAC LC | A_AAC Channels = 2 Bitrate = Samplerate = 48.0 kHz Language = English
Dolor.y.Gloria.2019.1080p.NF.WEB-Rip.DDP5.1.HEVC-DDR[EtHD]
Listing: Pain & Glory
Submitted by: Mavoy
Submitted on: July 13, 2019
So, Neflix? If so, the subs should show up sooner or later [Video Bitrate]:.............: 3580kb/s [Duration]:.............: 1 h 53 min [Video Codec]:.............: HEVC [Resolution]:.............: 1920x1032 px [Aspect Ratio]:.............: 1.85:1 [Audio Codec]:.............: E-AC-3 [Audio Bitrate]:.............: 640kb/s [Audio Channels]:.............: 5.1ch [Audio Language]:.............: Spanish
Dolor.Y.Gloria.2019.DVDRip.Castilian.YG
Listing: Pain & Glory
Submitted by: Mavoy
Submitted on: July 13, 2019
Surprise. Hmm, carefully I'd say "3" but it's actually perfectly watchable (judging by the screenshots so far). It doesn't have subtitles though. Video: MPEG4 Video (H264) 720x406 29.97fps [spa] (h264 high L4.1, yuv420p, 720x406) Audio: Dolby AC3 48000Hz stereo 256kbps [spa] (ac3, 48000 Hz, stereo, 256 kb/s)
Spider-Man Far From Home 2019 1080p NEW HD-TC V2-1XBET
Submitted by: Costa
Submitted on: July 12, 2019
MEDIAINFO Container = Matroska (mkv) Duration = 01:56:43.232 Filesize = 3 GiB Overall bitrate = 4 239 kb/s Video Codec info = AVC [email protected] | V_MPEG4/ISO/AVC Resolution = 1920x910 Display AR = 2.110 | 2.110 Bitrate = 3 930 kb/s Framerate = CFR 29.970 Color space = YUV Chroma subsampling = 4:2:0 Encoder = Audio Codec info = AC-3 | A_AC3 Channels = 2 Bitrate = CBR 224 kb/s Samplerate = 48.0 kHz Language = English
I.Got.The.Hook.Up.2.2019.1080p.WEB-DL.DD2.0.H264-FGT
Submitted by: Mr. Meeseeks
Submitted on: July 12, 2019
Video ID : 1 Format : AVC Format/Info : Advanced Video Codec Format profile : [email protected] Format settings : CABAC / 5 Ref Frames Format settings, CABAC : Yes Format settings, ReFrames : 5 frames Codec ID : V_MPEG4/ISO/AVC Duration : 1 h 47 min Bit rate : 4 595 kb/s Width : 1 912 pixels Height : 812 pixels Display aspect ratio : 2.35:1 Frame rate mode : Constant Frame rate : 23.976 FPS Color space : YUV Chroma subsampling : 4:2:0 Bit depth : 8 bits Scan type : Progressive Bits/(Pixel*Frame) : 0.123 Stream size : 3.46 GiB (96%) Title : I.Got.The.Hook.Up.2.2019.1080p.WEB-DL.DD2.0.H264-FGT Language : English Default : Yes Forced : No Color range : Limited Color primaries : BT.709 Transfer characteristics : BT.709 Matrix coefficients : BT.709 Audio ID : 2 Format : AC-3 Format/Info : Audio Coding 3 Commercial name : Dolby Digital Codec ID : A_AC3 Duration : 1 h 47 min Bit rate mode : Constant Bit rate : 192 kb/s Channel(s) : 2 channels Channel layout : L R Sampling rate : 48.0 kHz Frame rate : 31.250 FPS (1536 SPF) Bit depth : 16 bits Compression mode : Lossy Stream size : 148 MiB (4%) Title : I.Got.The.Hook.Up.2.2019.1080p.WEB-DL.DD2.0.H264-FGT Language : English Service kind : Complete Main Default : Yes Forced : No Text ID : 3 Format : UTF-8 Codec ID : S_TEXT/UTF8 Codec ID/Info : UTF-8 Plain Text Duration : 1 h 47 min Bit rate : 149 b/s Count of elements : 2792 Stream size : 118 KiB (0%) Language : English Default : Yes Forced : No
Dirty.God.2019.1080p.WEB-DL.DD5.1.H264-FGT
Listing: Dirty God
Submitted by: Mr. Meeseeks
Submitted on: July 12, 2019
Video ID : 1 Format : AVC Format/Info : Advanced Video Codec Format profile : [email protected] Format settings : CABAC / 5 Ref Frames Format settings, CABAC : Yes Format settings, ReFrames : 5 frames Format settings, GOP : N=1 Codec ID : V_MPEG4/ISO/AVC Duration : 1 h 39 min Bit rate : 4 542 kb/s Width : 1 916 pixels Height : 852 pixels Display aspect ratio : 2.25:1 Frame rate mode : Constant Frame rate : 25.000 FPS Color space : YUV Chroma subsampling : 4:2:0 Bit depth : 8 bits Scan type : Progressive Bits/(Pixel*Frame) : 0.111 Stream size : 3.17 GiB (92%) Title : Dirty.God.2019.1080p.WEB-DL.DD5.1.H264-FGT Language : English Default : Yes Forced : No Color range : Limited Color primaries : BT.709 Transfer characteristics : BT.709 Matrix coefficients : BT.709 Audio ID : 2 Format : AC-3 Format/Info : Audio Coding 3 Commercial name : Dolby Digital Codec ID : A_AC3 Duration : 1 h 39 min Bit rate mode : Constant Bit rate : 384 kb/s Channel(s) : 6 channels Channel layout : L R C LFE Ls Rs Sampling rate : 48.0 kHz Frame rate : 31.250 FPS (1536 SPF) Bit depth : 16 bits Compression mode : Lossy Stream size : 274 MiB (8%) Title : Dirty.God.2019.1080p.WEB-DL.DD5.1.H264-FGT Language : English Service kind : Complete Main Default : Yes Forced : No
Trespassers.2018.1080p.AMZN.WEBRip.DDP5.1.x264-NTG
Listing: Trespassers
Submitted by: Mr. Meeseeks
Submitted on: July 12, 2019
MediaInfo « Video ID : 1 Format : AVC Format/Info : Advanced Video Codec Format profile : [email protected] Format settings : CABAC / 4 Ref Frames Format settings, CABAC : Yes Format settings, ReFrames : 4 frames Codec ID : V_MPEG4/ISO/AVC Duration : 1 h 27 min Bit rate mode : Constant Bit rate : 8 455 kb/s Nominal bit rate : 10 000 kb/s Width : 1 920 pixels Height : 800 pixels Display aspect ratio : 2.40:1 Frame rate mode : Constant Frame rate : 23.976 (24000/1001) FPS Color space : YUV Chroma subsampling : 4:2:0 Bit depth : 8 bits Scan type : Progressive Bits/(Pixel*Frame) : 0.230 Stream size : 5.16 GiB (93%) Default : Yes Forced : No Color range : Limited Color primaries : BT.709 Transfer characteristics : BT.709 Matrix coefficients : BT.709 Audio ID : 2 Format : E-AC-3 Format/Info : Enhanced AC-3 Commercial name : Dolby Digital Plus Codec ID : A_EAC3 Duration : 1 h 27 min Bit rate mode : Constant Bit rate : 640 kb/s Channel(s) : 6 channels Channel layout : L R C LFE Ls Rs Sampling rate : 48.0 kHz Frame rate : 31.250 FPS (1536 SPF) Compression mode : Lossy Stream size : 400 MiB (7%) Language : English Service kind : Complete Main Default : Yes Forced : No Text #1 ID : 3 Format : UTF-8 Codec ID : S_TEXT/UTF8 Codec ID/Info : UTF-8 Plain Text Duration : 1 h 17 min Bit rate : 48 b/s Count of elements : 967 Stream size : 27.6 KiB (0%) Language : English Default : No Forced : No Text #2 ID : 4 Format : UTF-8 Codec ID : S_TEXT/UTF8 Codec ID/Info : UTF-8 Plain Text Duration : 1 h 25 min Bit rate : 51 b/s Count of elements : 1291 Stream size : 32.2 KiB (0%) Title : SDH Language : English Default : No Forced : No
A.Dark.Place.2018.1080p.BluRay.X264-AMIABLE
Listing: A Dark Place
Submitted by: Mr. Meeseeks
Submitted on: July 12, 2019
Video ID : 1 Format : AVC Format/Info : Advanced Video Codec Format profile : [email protected] Format settings : CABAC / 5 Ref Frames Format settings, CABAC : Yes Format settings, ReFrames : 5 frames Codec ID : V_MPEG4/ISO/AVC Duration : 1 h 29 min Bit rate : 8 958 kb/s Width : 1 920 pixels Height : 808 pixels Display aspect ratio : 2.40:1 Frame rate mode : Constant Frame rate : 23.976 (24000/1001) FPS Color space : YUV Chroma subsampling : 4:2:0 Bit depth : 8 bits Scan type : Progressive Bits/(Pixel*Frame) : 0.241 Stream size : 5.61 GiB (86%) Writing library : x264 core 157 r2970 5493be8 Encoding settings : cabac=1 / ref=5 / deblock=1:-3:-3 / analyse=0x3:0x113 / me=umh / subme=8 / psy=1 / psy_rd=1.00:0.00 / mixed_ref=1 / me_range=32 / chroma_me=1 / trellis=2 / 8x8dct=1 / cqm=0 / deadzone=21,11 / fast_pskip=1 / chroma_qp_offset=-2 / threads=25 / lookahead_threads=4 / sliced_threads=0 / nr=0 / decimate=1 / interlaced=0 / bluray_compat=0 / constrained_intra=0 / bframes=3 / b_pyramid=2 / b_adapt=2 / b_bias=0 / direct=3 / weightb=1 / open_gop=0 / weightp=2 / keyint=240 / keyint_min=24 / scenecut=40 / intra_refresh=0 / rc_lookahead=50 / rc=2pass / mbtree=1 / bitrate=8958 / ratetol=1.0 / qcomp=0.60 / qpmin=0 / qpmax=69 / qpstep=4 / cplxblur=20.0 / qblur=0.5 / ip_ratio=1.40 / aq=3:0.80 Default : Yes Forced : No Audio ID : 2 Format : DTS Format/Info : Digital Theater Systems Codec ID : A_DTS Duration : 1 h 29 min Bit rate mode : Constant Bit rate : 1 509 kb/s Channel(s) : 6 channels Channel layout : C L R Ls Rs LFE Sampling rate : 48.0 kHz Frame rate : 93.750 FPS (512 SPF) Bit depth : 24 bits Compression mode : Lossy Stream size : 968 MiB (14%) Language : English Default : Yes Forced : No Text #1 ID : 3 Format : UTF-8 Codec ID : S_TEXT/UTF8 Codec ID/Info : UTF-8 Plain Text Duration : 1 h 17 min Bit rate : 43 b/s Count of elements : 906 Stream size : 24.6 KiB (0%) Language : English Default : No Forced : No Text #2 ID : 4 Format : UTF-8 Codec ID : S_TEXT/UTF8 Codec ID/Info : UTF-8 Plain Text Duration : 1 h 22 min Bit rate : 44 b/s Count of elements : 1002 Stream size : 26.9 KiB (0%) Title : SDH Language : English Default : No Forced : No
Armstrong.2019.1080p.AMZN.WEBRip.DDP5.1.x264-NTG
Listing: Armstrong
Submitted by: Mr. Meeseeks
Submitted on: July 12, 2019
« Video ID : 1 Format : AVC Format/Info : Advanced Video Codec Format profile : [email protected] Format settings : CABAC / 4 Ref Frames Format settings, CABAC : Yes Format settings, ReFrames : 4 frames Codec ID : V_MPEG4/ISO/AVC Duration : 1 h 40 min Bit rate mode : Constant Bit rate : 6 833 kb/s Nominal bit rate : 10 000 kb/s Width : 1 920 pixels Height : 800 pixels Display aspect ratio : 2.40:1 Frame rate mode : Constant Frame rate : 23.976 (24000/1001) FPS Color space : YUV Chroma subsampling : 4:2:0 Bit depth : 8 bits Scan type : Progressive Bits/(Pixel*Frame) : 0.186 Stream size : 4.78 GiB (91%) Default : Yes Forced : No Color range : Limited Color primaries : BT.709 Transfer characteristics : BT.709 Matrix coefficients : BT.709 Audio ID : 2 Format : E-AC-3 Format/Info : Enhanced AC-3 Commercial name : Dolby Digital Plus Codec ID : A_EAC3 Duration : 1 h 40 min Bit rate mode : Constant Bit rate : 640 kb/s Channel(s) : 6 channels Channel layout : L R C LFE Ls Rs Sampling rate : 48.0 kHz Frame rate : 31.250 FPS (1536 SPF) Compression mode : Lossy Stream size : 458 MiB (9%) Language : English Service kind : Complete Main Default : Yes Forced : No
Summer.Night.2019.1080p.WEB-DL.DD5.1.H264-FGT
Listing: Summer Night
Submitted by: Mr. Meeseeks
Submitted on: July 12, 2019
Video ID : 1 Format : AVC Format/Info : Advanced Video Codec Format profile : [email protected] Format settings : CABAC / 5 Ref Frames Format settings, CABAC : Yes Format settings, ReFrames : 5 frames Codec ID : V_MPEG4/ISO/AVC Duration : 1 h 32 min Bit rate : 4 591 kb/s Width : 1 920 pixels Height : 800 pixels Display aspect ratio : 2.40:1 Frame rate mode : Constant Frame rate : 24.000 FPS Color space : YUV Chroma subsampling : 4:2:0 Bit depth : 8 bits Scan type : Progressive Bits/(Pixel*Frame) : 0.125 Stream size : 2.98 GiB (92%) Title : Summer.Night.2019.1080p.WEB-DL.DD5.1.H264-FGT Language : English Default : Yes Forced : No Color range : Limited Color primaries : BT.709 Transfer characteristics : BT.709 Matrix coefficients : BT.709 Audio ID : 2 Format : AC-3 Format/Info : Audio Coding 3 Commercial name : Dolby Digital Codec ID : A_AC3 Duration : 1 h 32 min Bit rate mode : Constant Bit rate : 384 kb/s Channel(s) : 6 channels Channel layout : L R C LFE Ls Rs Sampling rate : 48.0 kHz Frame rate : 31.250 FPS (1536 SPF) Bit depth : 16 bits Compression mode : Lossy Stream size : 255 MiB (8%) Title : Summer.Night.2019.1080p.WEB-DL.DD5.1.H264-FGT Language : English Service kind : Complete Main Default : Yes Forced : No Text ID : 3 Format : UTF-8 Codec ID : S_TEXT/UTF8 Codec ID/Info : UTF-8 Plain Text Duration : 1 h 32 min Bit rate : 88 b/s Count of elements : 1529 Stream size : 60.3 KiB (0%) Language : English Default : Yes Forced : No
2230 results - showing 21 - 40  
« 1 2 3 4 5 6 ... »