Latest download & stream reports

The reports below include movies found on pirate streams, torrent sites or retail digital streaming services such as iTunes, Netflix and Disney+.
 
4794 results - showing 1 - 5  
« 1 2 3 4 5 6 ... »  
 
Emancipation.2022.1080p.WEB.h264-TRUFFLE
Listing: Emancipation
Submitted by: Slen
Submitted on: December 09, 2022
size: 9.7 GiB runtime: 02:12:29.108 resolution: 1918 x 802 bitrate: 10,475 kb/s audio: E-AC-3 @ 768 kb/s (5.1) (Dolby Atmos) / English subs: English (forced), English, English (SDH), Arabic, Bulgarian, Czech, Danish, German, Greek, English (CC), Spanish (Latinoam rica), Spanish (Espa a), Estonian, Finnish, French (France), French (Canada), Hebrew, Hindi, Hungarian, Indonesian, Italian, Japanese, Korean, Lithuanian, Latvian, Malay, Dutch, Norwegian, Polish, Portuguese (Brasil), Portuguese, Russian, Slovak, Slovenian, Swedish, Tamil, Telugu, Thai, Turkish, Ukrainian, Vietnamese, Chinese
She.Said.2022.1080p.WEB.H264-NAISU
Listing: She Said
Submitted by: Slen
Submitted on: December 06, 2022
Size: 6535M Files: 11F Date: 2022-12-06 Duration: 2 h 9 min Source: Web Encoding: H264 Bitrate: 7 024 kb/s Audio Format: AC-3 (Dolby Digital) Audio Rate: 384 kb/s @ 6 channels Audio Lang: English Sub count: 4 Subtitles: English / English / French / Spanish
Bones.and.All.2022.720p.HDCAM-C1NEM
Listing: Bones and All
Submitted by: Slen
Submitted on: December 04, 2022
Duration = 02:04:25.625 Filesize = 2 GiB Overall bitrate = 2 231 kb/s Video Codec info = AVC High@L3.2 | avc1 Resolution = 1280x640 Display AR = 2.000 | 2.000 Bitrate = 2 039 kb/s Framerate = CFR 24.000 Color space = YUV Chroma subsampling = 4:2:0 Encoder = Audio Codec info = AAC | mp4a-40-2 Channels = 2 Bitrate = CBR 192 kb/s Samplerate = 48.0 kHz Language = English
Emancipation.2022.720p.HDCAM-C1NEM4
Listing: Emancipation
Submitted by: Costa
Submitted on: December 03, 2022
Please be advised this upload has ads cut or watermarked into the video.
Savage.Salvation.2022.1080p.WEBRip.DD5.1.x264-MZABI
Listing: Savage Salvation
Submitted by: Mr. Meeseeks
Submitted on: December 03, 2022
Video ID : 1 Format : AVC Format/Info : Advanced Video Codec Format profile : High@L4 Format settings : CABAC / 5 Ref Frames Format settings, CABAC : Yes Format settings, Reference frames : 5 frames Codec ID : V_MPEG4/ISO/AVC Duration : 1 h 41 min Bit rate : 10.1 Mb/s Width : 1 912 pixels Height : 796 pixels Display aspect ratio : 2.40:1 Frame rate mode : Constant Frame rate : 23.976 (24000/1001) FPS Color space : YUV Chroma subsampling : 4:2:0 Bit depth : 8 bits Scan type : Progressive Bits/(Pixel*Frame) : 0.275 Stream size : 7.10 GiB (96%) Language : English Default : Yes Forced : No Color range : Limited Color primaries : BT.709 Transfer characteristics : BT.709 Matrix coefficients : BT.709 Audio ID : 2 Format : AC-3 Format/Info : Audio Coding 3 Commercial name : Dolby Digital Codec ID : A_AC3 Duration : 1 h 41 min Bit rate mode : Constant Bit rate : 384 kb/s Channel(s) : 6 channels Channel layout : L R C LFE Ls Rs Sampling rate : 48.0 kHz Frame rate : 31.250 FPS (1536 SPF) Compression mode : Lossy Stream size : 278 MiB (4%) Language : English Service kind : Complete Main Default : Yes Forced : No
4794 results - showing 1 - 5  
« 1 2 3 4 5 6 ... »