Latest download & stream reports

895 results - showing 1 - 20  
« 1 2 3 4 5 6 ... »  
 
The.Misandrists.2017.LiMiTED.DVDRip.x264-CADAVER
Listing: The Misandrists
Submitted by: Mr. Meeseeks
Submitted on: June 20, 2018
Duration.......: 1 h 31 min Video .........: x264 @ CRF 19 Frame Rate.....: 25 fps Resolution.....: 720x300 Audio..........: English 2ch AAC LC Subtitles......: None Size...........: 384.7 MB
The Endless 2017.BDRip.XviD.AC3-EVO
Listing: The Endless
Submitted by: Mr. Meeseeks
Submitted on: June 20, 2018
ViDEO: 1350 Kbps RESOLUTiON: 720x304 RUNTiME: 1h 51m 43s SUBTiTLES: No. AUDiO: 448 Kbps AC3 5.1 LANGUAGE: English ENCODER: DdHD
Darkness.Reigns.2017.HDRip.XViD-ETRG
Listing: Darkness Reigns
Submitted by: Mr. Meeseeks
Submitted on: June 20, 2018
Bitrate : 1160kbps Resolution : 640 X 352 Frame Rate : 23.976 fps Aspect Ratio :16:9 Audio :- Codec ID : MP3 Sample Rate : 48.0 KHZ Bitrate : 128kbps Channel(s) : 2 Duration : 01h15m Source : NTG Thanks File Size : 700MB Sample : Ye Release Date : 20-6-2018 Language : English Subtitles : English
The.Workshop.2017.LiMiTED.DVDRip.x264
Listing: The Workshop
Submitted by: Mr. Meeseeks
Submitted on: June 20, 2018
Title [ The Workshop Release.Date [ 06/20/2018 Source [ DVD RETAIL Release.Size [ 47x15MB Runtime [ 1h 53mn Video.Format [ X264 Frame.Rate [ 23.976 FPS Aspect.Ratio [ 720x308 *WS* Bitrate [ 815 kb/s Subs [ English
Isle Of Dogs 2018 720p HDRip X264 AC3-EVOnew720p
Listing: Isle of Dogs
Submitted by: Mojib
Submitted on: June 19, 2018
iTunes rip.
Keep the Change 2017 HDRip AC3 X264-CMRG[TGx]
Listing: Keep the Change
Submitted by: Mr. Meeseeks
Submitted on: June 19, 2018
Container = Matroska (mkv) Duration = 01:34:00.608 Filesize = 1 GiB ViDEO Codec info = AVC [email protected] | V_MPEG4/ISO/AVC Resolution = 720x400 Display AR = 1.800 | 16:9 Bitrate = 1 800 kb/s Framerate = CFR 23.976 Color space = YUV Chroma subsampling = 4:2:0 Encoder = x264 - core 152 r2851 ba24899 AUDiO Codec info = AC-3 | A_AC3 Channels = 6 Bitrate = CBR 384 kb/s Samplerate = 48.0 kHz Language = English
Prodigals 2017 HDRip AC3 X264-CMRG[TGx]
Listing: Prodigals
Submitted by: Mr. Meeseeks
Submitted on: June 19, 2018
Container = Matroska (mkv) Duration = 01:49:11.104 Filesize = 2 GiB ViDEO Codec info = AVC [email protected] | V_MPEG4/ISO/AVC Resolution = 720x304 Display AR = 2.368 | 2.35:1 Bitrate = 1 800 kb/s Framerate = CFR 23.976 Color space = YUV Chroma subsampling = 4:2:0 Encoder = x264 - core 152 r2851 ba24899 AUDiO Codec info = AC-3 | A_AC3 Channels = 6 Bitrate = CBR 384 kb/s Samplerate = 48.0 kHz Language = English
Cardinals 2017 HDRip AC3 X264-CMRG[TGx]
Listing: Cardinals
Submitted by: Mr. Meeseeks
Submitted on: June 19, 2018
Container = Matroska (mkv) Duration = 01:23:47.936 Filesize = 1 GiB ViDEO Codec info = AVC [email protected] | V_MPEG4/ISO/AVC Resolution = 720x304 Display AR = 2.368 | 2.35:1 Bitrate = 1 800 kb/s Framerate = CFR 23.976 Color space = YUV Chroma subsampling = 4:2:0 Encoder = x264 - core 152 r2851 ba24899 AUDiO Codec info = AC-3 | A_AC3 Channels = 6 Bitrate = CBR 384 kb/s Samplerate = 48.0 kHz Language = English
Blockers.2018.1080p.WEB-DL.H264.AC3-EVO
Listing: Blockers
Submitted by: Mr. Meeseeks
Submitted on: June 19, 2018
SOURCE: iTunes ViDEO: 4990 Kbps - Untouched iTunes file RESOLUTiON: 1916x800 RUNTiME: 1h 41m 43s SUBTiTLES: No. AUDiO: 384 Kbps AC3 5.1 LANGUAGE: English ENCODER: DdHD
Frat.Pack.2018.1080p.WEB-DL.H264.AC3-EVO
Listing: Frat Pack
Submitted by: Mr. Meeseeks
Submitted on: June 19, 2018
SOURCE: iTunes ViDEO: 4990 Kbps - Untouched iTunes file RESOLUTiON: 1916x1070 RUNTiME: 1h 32m 43s SUBTiTLES: No. AUDiO: 384 Kbps AC3 5.1 LANGUAGE: English ENCODER: DdHD
The.Bookshop.2017.1080p.BluRay.AVC.DTS-HD.MA.5.1-FGT
Listing: The Bookshop
Submitted by: Mr. Meeseeks
Submitted on: June 18, 2018
DISC INFO: Disc Title: The.Bookshop.2017.1080p.BluRay.AVC.DTS-HD.MA.5.1-FGT Disc Size: 46,779,878,302 bytes Protection: AACS BD-Java: No BDInfo: 0.5.8.7 (compatible layout created by DVDFab 10.0.9.7) PLAYLIST REPORT: Name: 00007.MPLS Length: 1:52:38.583 (h:m:s.ms) Size: 28,587,239,424 bytes Total Bitrate: 33.84 Mbps VIDEO: Codec Bitrate Description ----- ------- ----------- MPEG-4 AVC Video 25559 kbps 1080p / 24 fps / 16:9 / High Profile 4.1 / AUDIO: Codec Language Bitrate Description ----- -------- ------- ----------- DTS-HD Master Audio English 1934 kbps 5.1 / 48 kHz / 1934 kbps / 16-bit (DTS Core: 5.1 / 48 kHz / 1509 kbps / 16-bit) DTS-HD Master Audio Spanish 1914 kbps 5.1 / 48 kHz / 1914 kbps / 16-bit (DTS Core: 5.1 / 48 kHz / 1509 kbps / 16-bit) DTS-HD Master Audio Catalan 1913 kbps 5.1 / 48 kHz / 1913 kbps / 16-bit (DTS Core: 5.1 / 48 kHz / 1509 kbps / 16-bit) Dolby Digital Audio Spanish 192 kbps 2.0 / 48 kHz / 192 kbps SUBTITLES: Codec Language Bitrate Description ----- -------- ------- ----------- Presentation Graphics Spanish 37.839 kbps Presentation Graphics Catalan 36.18 kbps Presentation Graphics Spanish 35.909 kbps Presentation Graphics Spanish 0.606 kbps Presentation Graphics Catalan 0.582 kbps
Life.of.the.Party.2018.HDRip.XviD.AC3-EVO
Submitted by: Mr. Meeseeks
Submitted on: June 18, 2018
SOURCE: iTunes ViDEO: 1500 Kbps -2 Passes RESOLUTiON: 720x304 RUNTiME: 1h 44m 43s SUBTiTLES: No. AUDiO: 384 Kbps AC3 5.1 LANGUAGE: English ENCODER: DdHD
Finding Your Feet.2017.HDRip.XviD.AC3-EVO
Submitted by: Mr. Meeseeks
Submitted on: June 18, 2018
ViDEO: 1350 Kbps -2 Passes RESOLUTiON: 720x304 RUNTiME: 1h 51m 43s SUBTiTLES: No. AUDiO: 384 Kbps AC3 5.1 LANGUAGE: English ENCODER: DdHD
The.Escape.of.Prisoner.614.2018.1080p.BluRay.x264.DTS-MT
Submitted by: Mr. Meeseeks
Submitted on: June 18, 2018
Video ID : 1 Format : AVC Format/Info : Advanced Video Codec Format profile : [email protected] Format settings : CABAC / 5 Ref Frames Format settings, CABAC : Yes Format settings, ReFrames : 5 frames Codec ID : V_MPEG4/ISO/AVC Duration : 1 h 37 min Bit rate : 12.4 Mb/s Width : 1 920 pixels Height : 804 pixels Display aspect ratio : 2.40:1 Frame rate mode : Constant Frame rate : 23.976 (24000/1001) FPS Color space : YUV Chroma subsampling : 4:2:0 Bit depth : 8 bits Scan type : Progressive Bits/(Pixel*Frame) : 0.335 Stream size : 8.42 GiB (89%) Title : The.Escape.of.Prisoner.614.2018.1080p.BluRay.x264.DTS-MT Language : English Default : Yes Forced : No Audio ID : 2 Format : DTS Format/Info : Digital Theater Systems Codec ID : A_DTS Duration : 1 h 37 min Bit rate mode : Constant Bit rate : 1 509 kb/s Channel(s) : 6 channels Channel positions : Front: L C R, Side: L R, LFE Sampling rate : 48.0 kHz Frame rate : 93.750 FPS (512 SPF) Bit depth : 24 bits Compression mode : Lossy Stream size : 1.03 GiB (11%) Title : The.Escape.of.Prisoner.614.2018.1080p.BluRay.x264.DTS-MT Language : English Default : Yes Forced : No
Ready.Player.One.2018.1080p.WEB.h264-WEBTiFUL
Listing: Ready Player One
Submitted by: Costa
Submitted on: June 17, 2018
A comment says: "Real deal. Nice 1080p Video. Audio is true. Just tested through to end credits. Perfect upload. Thank you very Much! V10/A10."
Rampage.2018.HDRip.XviD.AC3-EVO[TGx]
Listing: Rampage
Submitted by: Mr. Meeseeks
Submitted on: June 17, 2018
Container = AVI (avi) Duration = 01:47:14.094 Filesize = 1 GiB ViDEO Codec info = MPEG-4 Visual Advanced [email protected] | XVID Resolution = 720x304 Display AR = 2.368 | 2.35:1 Bitrate = 1 459 kb/s Framerate = 23.976 Color space = YUV Chroma subsampling = 4:2:0 Encoder = XviD0066 AUDiO Codec info = AC-3 | 2000 Channels = 6 Bitrate = CBR 384 kb/s Samplerate = 48.0 kHz Language = English
Truth.or.Dare.2018.HDRip.XViD.AC3-ETRG
Listing: Truth or Dare
Submitted by: Mr. Meeseeks
Submitted on: June 17, 2018
Bitrate : 1544kbps Resolution : 720 X 304 Frame Rate : 29.976 fps Aspect Ratio :2.35:1 Audio :- Codec ID : AC3 Sample Rate : 48.0 KHZ Bitrate : 192kbps Channel(s) : 2 Duration : 01h40m Source : 1XBET Thanks File Size : 1.23GiB Sample : Ye Release Date : 12-6-2018 Language : English
Incredibles.2.2018.720p.HDCAM.ENG.x264-1XBET[TGx]
Submitted by: Mr. Meeseeks
Submitted on: June 17, 2018
MEDIAINFO Container = MPEG-4 (mp4) Duration = 01:45:33.248 Filesize = 2 GiB ViDEO Codec info = AVC [email protected] | avc1 Resolution = 1280x536 Display AR = 2.388 | 2.40:1 Bitrate = 3 085 kb/s Framerate = CFR 29.970 Color space = YUV Chroma subsampling = 4:2:0 Encoder = x264 - core 148 AUDiO Codec info = AC-3 | ac-3 Channels = 2 Bitrate = CBR 224 kb/s Samplerate = 48.0 kHz Language = English
I.Feel.Pretty.2018.HDCAM.600MB.x264-SeeHD[TGx]
Listing: I Feel Pretty
Submitted by: Mr. Meeseeks
Submitted on: June 17, 2018
MEDIAINFO Container = MPEG-4 (mp4) Duration = 01:44:58.668 Filesize = 558 MiB ViDEO Codec info = AVC [email protected] | avc1 Resolution = 720x336 Display AR = 2.143 | 2.143 Bitrate = 640 kb/s Framerate = CFR 29.970 Color space = YUV Chroma subsampling = 4:2:0 Encoder = x264 - core 148 r2643 5c65704 AUDiO Codec info = AAC LC | 40 Channels = 2 Bitrate = CBR 96.0 kb/s Samplerate = 44.1 kHz Language = English
Apocalypse Rising 2018 1080p BluRay x264 DTS [MW]
Submitted by: Mr. Meeseeks
Submitted on: June 17, 2018
General Format : Matroska Format version : Version 4 / Version 2 File size : 2.01 GiB Duration : 1 h 23 min Overall bit rate : 3 464 kb/s Video ID : 1 Format : AVC Format/Info : Advanced Video Codec Format profile : [email protected] Format settings : CABAC / 4 Ref Frames Format settings, CABAC : Yes Format settings, RefFrames : 4 frames Codec ID : V_MPEG4/ISO/AVC Duration : 1 h 23 min Bit rate : 2 000 kb/s Width : 1 920 pixels Height : 800 pixels Display aspect ratio : 2.40:1 Frame rate mode : Constant Frame rate : 23.976 (24000/1001) FPS Color space : YUV Chroma subsampling : 4:2:0 Bit depth : 8 bits Scan type : Progressive Bits/(Pixel*Frame) : 0.054 Stream size : 1.14 GiB (56%) Writing library : x264 core 155 r2901 7d0ff22 Default : Yes Forced : No Audio ID : 2 Format : DTS Format/Info : Digital Theater Systems Codec ID : A_DTS Duration : 1 h 23 min Bit rate mode : Constant Bit rate : 1 509 kb/s Channel(s) : 2 channels Channel positions : Front: L R Sampling rate : 48.0 kHz Frame rate : 93.750 FPS (512 SPF) Bit depth : 24 bits Compression mode : Lossy Stream size : 899 MiB (44%) Language : English Default : Yes Forced : No
895 results - showing 1 - 20  
« 1 2 3 4 5 6 ... »