Latest download & stream reports

The reports below include movies found on pirate streams, torrent sites or retail digital streaming services such as iTunes, Netflix and Disney+.
 
4490 results - showing 1 - 5  
« 1 2 3 4 5 6 ... »  
 
Unicorn.Town.2022.1080p.WEBRip.DD5.1.x264-CM
Listing: Unicorn Town
Submitted by: Mr. Meeseeks
Submitted on: August 19, 2022
Video ID : 1 Format : AVC Format/Info : Advanced Video Codec Format profile : High@L4 Format settings : CABAC / 5 Ref Frames Format settings, CABAC : Yes Format settings, Reference frames : 5 frames Codec ID : V_MPEG4/ISO/AVC Duration : 1 h 25 min Bit rate : 6 475 kb/s Width : 1 910 pixels Height : 796 pixels Display aspect ratio : 2.40:1 Frame rate mode : Constant Frame rate : 23.976 (24000/1001) FPS Color space : YUV Chroma subsampling : 4:2:0 Bit depth : 8 bits Scan type : Progressive Bits/(Pixel*Frame) : 0.178 Stream size : 3.89 GiB (94%) Language : English Default : Yes Forced : No Color range : Limited Color primaries : BT.709 Transfer characteristics : BT.709 Matrix coefficients : BT.709 Audio ID : 2 Format : AC-3 Format/Info : Audio Coding 3 Commercial name : Dolby Digital Codec ID : A_AC3 Duration : 1 h 25 min Bit rate mode : Constant Bit rate : 384 kb/s Channel(s) : 6 channels Channel layout : L R C LFE Ls Rs Sampling rate : 48.0 kHz Frame rate : 31.250 FPS (1536 SPF) Compression mode : Lossy Stream size : 236 MiB (6%) Language : English Service kind : Complete Main Default : Yes Forced : No
Spin.Me.Round.2022.1080p.WEBRip.DD5.1.x264-CM
Listing: Spin Me Round
Submitted by: Mr. Meeseeks
Submitted on: August 19, 2022
Video ID : 1 Format : AVC Format/Info : Advanced Video Codec Format profile : High@L4 Format settings : CABAC / 4 Ref Frames Format settings, CABAC : Yes Format settings, Reference frames : 4 frames Codec ID : V_MPEG4/ISO/AVC Duration : 1 h 44 min Bit rate : 10.2 Mb/s Width : 1 918 pixels Height : 1 036 pixels Display aspect ratio : 1.85:1 Frame rate mode : Constant Frame rate : 23.976 (24000/1001) FPS Color space : YUV Chroma subsampling : 4:2:0 Bit depth : 8 bits Scan type : Progressive Bits/(Pixel*Frame) : 0.214 Stream size : 7.39 GiB (96%) Language : English Default : Yes Forced : No Color range : Limited Color primaries : BT.709 Transfer characteristics : BT.709 Matrix coefficients : BT.709 Audio ID : 2 Format : AC-3 Format/Info : Audio Coding 3 Commercial name : Dolby Digital Codec ID : A_AC3 Duration : 1 h 44 min Bit rate mode : Constant Bit rate : 384 kb/s Channel(s) : 6 channels Channel layout : L R C LFE Ls Rs Sampling rate : 48.0 kHz Frame rate : 31.250 FPS (1536 SPF) Compression mode : Lossy Stream size : 286 MiB (4%) Language : English Service kind : Complete Main Default : Yes Forced : No
The.Immaculate.Room.2022.2160p.WEB-DL.x265.10bit.SDR.DD5.1-CM
Submitted by: Mr. Meeseeks
Submitted on: August 19, 2022
Video ID : 1 Format : HEVC Format/Info : High Efficiency Video Coding Format profile : Main 10@L5@High Codec ID : V_MPEGH/ISO/HEVC Duration : 1 h 32 min Bit rate : 11.9 Mb/s Width : 3 836 pixels Height : 1 600 pixels Display aspect ratio : 2.40:1 Original display aspect ratio : 2.40:1 Frame rate mode : Constant Frame rate : 23.976 FPS Color space : YUV Chroma subsampling : 4:2:0 Bit depth : 10 bits Bits/(Pixel*Frame) : 0.081 Stream size : 7.66 GiB (97%) Language : English Default : Yes Forced : No Color range : Limited Color primaries : BT.709 Transfer characteristics : BT.709 Matrix coefficients : BT.709 Audio ID : 2 Format : AC-3 Format/Info : Audio Coding 3 Commercial name : Dolby Digital Codec ID : A_AC3 Duration : 1 h 32 min Bit rate mode : Constant Bit rate : 384 kb/s Channel(s) : 6 channels Channel layout : L R C LFE Ls Rs Sampling rate : 48.0 kHz Frame rate : 31.250 FPS (1536 SPF) Compression mode : Lossy Stream size : 253 MiB (3%) Language : English Service kind : Complete Main Default : Yes Forced : No
Get.Away.If.You.Can.2022.1080p.WEBRip.DD5.1.x264-CM
Submitted by: Mr. Meeseeks
Submitted on: August 19, 2022
Video ID : 1 Format : AVC Format/Info : Advanced Video Codec Format profile : High@L4 Format settings : CABAC / 5 Ref Frames Format settings, CABAC : Yes Format settings, Reference frames : 5 frames Codec ID : V_MPEG4/ISO/AVC Duration : 1 h 18 min Bit rate : 6 565 kb/s Width : 1 916 pixels Height : 796 pixels Display aspect ratio : 2.40:1 Frame rate mode : Constant Frame rate : 23.976 (23976/1000) FPS Color space : YUV Chroma subsampling : 4:2:0 Bit depth : 8 bits Scan type : Progressive Bits/(Pixel*Frame) : 0.180 Stream size : 3.59 GiB (94%) Language : English Default : Yes Forced : No Color range : Limited Color primaries : BT.709 Transfer characteristics : BT.709 Matrix coefficients : BT.709 Audio ID : 2 Format : AC-3 Format/Info : Audio Coding 3 Commercial name : Dolby Digital Codec ID : A_AC3 Duration : 1 h 18 min Bit rate mode : Constant Bit rate : 384 kb/s Channel(s) : 6 channels Channel layout : L R C LFE Ls Rs Sampling rate : 48.0 kHz Frame rate : 31.250 FPS (1536 SPF) Compression mode : Lossy Stream size : 215 MiB (6%) Language : English Service kind : Complete Main Default : Yes Forced : No
Orphan.First.Kill.2022.1080p.AMZN.WEB-DL.DDP5.1.H.264-EVO[TGx]
Submitted by: Costa
Submitted on: August 18, 2022
MEDIAINFO Container = Matroska (mkv) Duration = 01:34:16.512 Filesize = 5 GiB Overall bitrate = 6 974 kb/s Video Codec info = AVC High@L4 | V_MPEG4/ISO/AVC Resolution = 1920x1040 Display AR = 1.850 | 1.85:1 Bitrate = 6 332 kb/s Framerate = CFR 25.000 Color space = YUV Chroma subsampling = 4:2:0 Encoder = Audio Codec info = E-AC-3 | A_EAC3 Channels = 6 Bitrate = CBR 640 kb/s Samplerate = 48.0 kHz Language = English
4490 results - showing 1 - 5  
« 1 2 3 4 5 6 ... »