Latest download & stream reports

694 results - showing 1 - 20  
« 1 2 3 4 5 6 ... »  
 
Fifty.Shades.Freed.2018.UNRATED.720p.BluRay.x264-DRONES
Submitted by: Mr. Meeseeks
Submitted on: April 25, 2018
Visual : 1280x536 5582Kbps 23.976 Acoustic : English DTS 1509Kbps 5.1ch Textual : English / French / Spanish Target Size : 5596 MB
Psychokinesis.2018.HDRip.XviD.AC3-EVO
Listing: Psychokinesis
Submitted by: Mr. Meeseeks
Submitted on: April 25, 2018
ViDEO: 1500 Kbps -2 Passes RESOLUTiON: 720x304 RUNTiME: 1h 41m 43s SUBTiTLES: English (.srt) AUDiO: 384 Kbps AC3 5.1 LANGUAGE: Korean ENCODER: DdHD
Incontrol.2018.HDRip.XviD.AC3-EVO
Listing: Incontrol
Submitted by: Mr. Meeseeks
Submitted on: April 25, 2018
ViDEO: 2050 Kbps RESOLUTiON: 720x304 RUNTiME: 1h 22m 43s SUBTiTLES: No. AUDiO: 384 Kbps AC3 5.1 LANGUAGE: ENGLiSH ENCODER: DdHD
Nostalgia.2018.720p.BluRay.x264.DTS-MT
Listing: Nostalgia
Submitted by: Mr. Meeseeks
Submitted on: April 24, 2018
Video ID : 1 Format : AVC Format/Info : Advanced Video Codec Format profile : High@L4.1 Format settings : CABAC / 12 Ref Frames Format settings, CABAC : Yes Format settings, ReFrames : 12 frames Codec ID : V_MPEG4/ISO/AVC Duration : 1 h 54 min Bit rate : 8 000 kb/s Width : 1 280 pixels Height : 534 pixels Display aspect ratio : 2.40:1 Frame rate mode : Constant Frame rate : 23.976 (24000/1001) FPS Color space : YUV Chroma subsampling : 4:2:0 Bit depth : 8 bits Scan type : Progressive Bits/(Pixel*Frame) : 0.488 Stream size : 6.39 GiB (84%) Writing library : x264 core 152 r2851 ba24899 Audio ID : 2 Format : DTS Format/Info : Digital Theater Systems Codec ID : A_DTS Duration : 1 h 54 min Bit rate mode : Constant Bit rate : 1 509 kb/s Channel(s) : 6 channels Channel positions : Front: L C R, Side: L R, LFE Sampling rate : 48.0 kHz Frame rate : 93.750 FPS (512 SPF) Bit depth : 24 bits Compression mode : Lossy Stream size : 1.21 GiB (16%) Default : Yes Forced : No
Please.Stand.By.2017.720p.BluRay.x264.DTS-MT
Listing: Please Stand By
Submitted by: Mr. Meeseeks
Submitted on: April 24, 2018
Video ID : 1 Format : AVC Format/Info : Advanced Video Codec Format profile : High@L4.1 Format settings : CABAC / 12 Ref Frames Format settings, CABAC : Yes Format settings, ReFrames : 12 frames Codec ID : V_MPEG4/ISO/AVC Duration : 1 h 32 min Bit rate : 6 000 kb/s Width : 1 280 pixels Height : 534 pixels Display aspect ratio : 2.40:1 Frame rate mode : Constant Frame rate : 23.976 (24000/1001) FPS Color space : YUV Chroma subsampling : 4:2:0 Bit depth : 8 bits Scan type : Progressive Bits/(Pixel*Frame) : 0.366 Stream size : 3.89 GiB (80%) Writing library : x264 core 152 r2851 ba24899 Audio ID : 2 Format : DTS Format/Info : Digital Theater Systems Codec ID : A_DTS Duration : 1 h 32 min Bit rate mode : Constant Bit rate : 1 509 kb/s Channel(s) : 6 channels Channel positions : Front: L C R, Side: L R, LFE Sampling rate : 48.0 kHz Frame rate : 93.750 FPS (512 SPF) Bit depth : 24 bits Compression mode : Lossy Stream size : 1 001 MiB (20%) Title : 英语 Language : English Default : Yes Forced : No
Last Seen in Idaho.2018.1080p.WEB-DL.H264.AC3-EVO
Submitted by: Mr. Meeseeks
Submitted on: April 24, 2018
SOURCE: iTunes ViDEO: 4990 Kbps - Untouched iTunes file RESOLUTiON: 1916x800 RUNTiME: 1h 49m 43s SUBTiTLES: No. AUDiO: 384 Kbps AC3 5.1 LANGUAGE: ENGLiSH ENCODER: DdHD
The 4th Company 2016 1080p NF WEB-DL DD5 1 x264-NTG
Listing: The 4th Company
Submitted by: Mr. Meeseeks
Submitted on: April 24, 2018
SIZE:........ 5419141465 bytes (5.05 GiB), DURATION:............ 01:56:58, AVG-BITRATE:......... 6177 kb/s AUDIO:....... ac3, 48000 Hz, 5:1 (spa) VIDEO:....... h264, yuv420p, 1920x1080, 24.00 fps(r)
Batman.Ninja.2018.HDRip.XviD.AC3-EVO
Listing: Batman Ninja
Submitted by: Mr. Meeseeks
Submitted on: April 24, 2018
SOURCE: iTunes ViDEO: 1609 Kbps -2 Passes RESOLUTiON: 720x400 RUNTiME: 1h 25m 43s SUBTiTLES: No. AUDiO: 384 Kbps AC3 5.1 LANGUAGE: ENGLiSH ENCODER: DdHD
Nostalgia.2018.BDRip.XviD.AC3-EVO
Listing: Nostalgia
Submitted by: Mr. Meeseeks
Submitted on: April 23, 2018
ViDEO: 1350 Kbps RESOLUTiON: 720x304 RUNTiME: 1h 54m 43s SUBTiTLES: No. AUDiO: 448 Kbps AC3 5.1 LANGUAGE: ENGLiSH ENCODER: DdHD
Where the Skin Lies 2017.HDRip.XviD.AC3-EVO
Submitted by: Mr. Meeseeks
Submitted on: April 23, 2018
SOURCE: iTunes ViDEO: 1750 Kbps RESOLUTiON: 720x304 RUNTiME: 1h 31m 43s SUBTiTLES: No. AUDiO: 384 Kbps AC3 5.1 LANGUAGE: ENGLiSH ENCODER: DdHD
Confessions of a Teenage Jesus Jerk 2017 HDRip AC3 X264-CMRG
Submitted by: Mr. Meeseeks
Submitted on: April 22, 2018
SOURCE : iTunes Overall bit rate : 2 065 kb/s RESOLUTiON : 720x400 RUNTiME : 1 h 36 min Video Info : 1 700 kb/s @23.976 (24000/1001) FPS Audio : AC-3 , 384 kb/s , 6 channels
Winchester.2018.1080p.BluRay.x264.DTS-HDC
Listing: Winchester
Submitted by: Mr. Meeseeks
Submitted on: April 20, 2018
Video ID : 1 Format : AVC Format/Info : Advanced Video Codec Format profile : High@L4.1 Format settings : CABAC / 5 Ref Frames Format settings, CABAC : Yes Format settings, ReFrames : 5 frames Codec ID : V_MPEG4/ISO/AVC Duration : 1 h 39 min Bit rate : 10 000 kb/s Width : 1 920 pixels Height : 804 pixels Display aspect ratio : 2.40:1 Frame rate mode : Constant Frame rate : 23.976 (24000/1001) FPS Color space : YUV Chroma subsampling : 4:2:0 Bit depth : 8 bits Scan type : Progressive Bits/(Pixel*Frame) : 0.270 Stream size : 6.95 GiB (87%) Title : Winchester.2018.1080p.BluRay.x264.DTS-HDC Writing library : x264 core 148 r2665kMod a01e339 Audio ID : 2 Format : DTS Format/Info : Digital Theater Systems Codec ID : A_DTS Duration : 1 h 39 min Bit rate mode : Constant Bit rate : 1 509 kb/s Channel(s) : 6 channels Channel positions : Front: L C R, Side: L R, LFE Sampling rate : 48.0 kHz Frame rate : 93.750 FPS (512 SPF) Bit depth : 24 bits Compression mode : Lossy Stream size : 1.05 GiB (13%) Title : Winchester.2018.1080p.BluRay.x264.DTS-HDC Language : English Default : Yes Forced : No Text ID : 3 Format : UTF-8 Codec ID : S_TEXT/UTF8 Codec ID/Info : UTF-8 Plain Text Duration : 1 h 26 min Bit rate : 48 b/s Count of elements : 1051 Stream size : 30.8 KiB (0%) Language : English Default : Yes Forced : No
Kodachrome.2018.HDRip.XviD.AC3-EVO
Listing: Kodachrome
Submitted by: Mr. Meeseeks
Submitted on: April 20, 2018
ViDEO: 1500 Kbps -2 Passes RESOLUTiON: 720x384 RUNTiME: 1h 45m 43s SUBTiTLES: No. AUDiO: 384 Kbps AC3 5.1 LANGUAGE: ENGLiSH ENCODER: DdHD
Dude.2018.720p.NF.WEB-DL.DD5.1.x264-NTG
Listing: Dude
Submitted by: Mr. Meeseeks
Submitted on: April 20, 2018
[Video Bitrate]:.............: 1381 kbps [Duration]:.............: 1h 37mn [Video Codec]:.............: AVC [Resolution]:.............: 1280x720 px [Aspect Ratio]:.............: 16:9 [Audio Codec]:.............: AC-3 [Audio Bitrate]:.............: 384 kbps [Audio Channels]:.............: 5.1ch [Audio Language]:.............: English
Mercury.13.2018.1080p.WEB.x264-STRiFE
Listing: Mercury 13
Submitted by: Mr. Meeseeks
Submitted on: April 20, 2018
Video ID : 1 Format : AVC Format/Info : Advanced Video Codec Format profile : Main@L4 Format settings : CABAC / 3 Ref Frames Format settings, CABAC : Yes Format settings, RefFrames : 3 frames Codec ID : V_MPEG4/ISO/AVC Duration : 1 h 19 min Bit rate mode : Variable Bit rate : 7 500 kb/s Maximum bit rate : 11.2 Mb/s Width : 1 920 pixels Height : 1 080 pixels Display aspect ratio : 16:9 Frame rate mode : Constant Frame rate : 23.976 (24000/1001) FPS Color space : YUV Chroma subsampling : 4:2:0 Bit depth : 8 bits Scan type : Progressive Bits/(Pixel*Frame) : 0.151 Stream size : 3.97 GiB (95%) Writing library : x264 core 1 Audio ID : 2 Format : AC-3 Format/Info : Audio Coding 3 Format settings, Endianness : Big Codec ID : A_AC3 Duration : 1 h 19 min Bit rate mode : Constant Bit rate : 384 kb/s Channel(s) : 6 channels Channel positions : Front: L C R, Side: L R, LFE Sampling rate : 48.0 kHz Frame rate : 31.250 FPS (1536 SPF) Bit depth : 16 bits Compression mode : Lossy Stream size : 218 MiB (5%) Language : English Service kind : Complete Main Default : Yes Forced : No Text #1 ID : 3 Format : UTF-8 Codec ID : S_TEXT/UTF8 Codec ID/Info : UTF-8 Plain Text Duration : 1 h 14 min Bit rate : 82 b/s Count of elements : 946 Stream size : 45.2 KiB (0%) Language : English Default : No Forced : No Text #2 ID : 4 Format : UTF-8 Codec ID : S_TEXT/UTF8 Codec ID/Info : UTF-8 Plain Text Duration : 1 h 18 min Bit rate : 70 b/s Count of elements : 935 Stream size : 40.7 KiB (0%) Language : Dutch Default : No Forced : No Text #3 ID : 5 Format : UTF-8 Codec ID : S_TEXT/UTF8 Codec ID/Info : UTF-8 Plain Text Duration : 1 h 18 min Bit rate : 70 b/s Count of elements : 984 Stream size : 40.4 KiB (0%) Title : European Language : Spanish Default : No Forced : No Text #4 ID : 6 Format : UTF-8 Codec ID : S_TEXT/UTF8 Codec ID/Info : UTF-8 Plain Text Duration : 1 h 18 min Bit rate : 74 b/s Count of elements : 991 Stream size : 42.8 KiB (0%) Language : French Default : No Forced : No Text #5 ID : 7 Format : UTF-8 Codec ID : S_TEXT/UTF8 Codec ID/Info : UTF-8 Plain Text Duration : 1 h 18 min Bit rate : 80 b/s Count of elements : 986 Stream size : 46.0 KiB (0%) Language : German Default : No Forced : No
Pass Over 2018 HDRip AC3 X264-CMRG
Listing: Pass Over
Submitted by: Mr. Meeseeks
Submitted on: April 20, 2018
SIZE:........ 1172392871 bytes (1.09 GiB), DURATION:............ 01:15:15, AVG-BITRATE:......... 2077 kb/s AUDIO:....... ac3, 48000 Hz, 5:1 (eng) VIDEO:....... h264, yuv420p, 720x400, 23.98 fps(r)
Corbin Nash 2018 HDRip AC3 X264-CMRG
Listing: Corbin Nash
Submitted by: Mr. Meeseeks
Submitted on: April 20, 2018
Overall bit rate : 2 051 kb/s RESOLUTiON : 720x400 RUNTiME : 1 h 34 min Video Info : 1 700 kb/s @23.976 (24000/1001) FPS Audio : AC-3 , 384 kb/s , 6 channels
Genesis.2018.720p.WEB-DL.H264.AC3-EVO
Listing: Genesis
Submitted by: Mr. Meeseeks
Submitted on: April 20, 2018
ViDEO: 3990 Kbps - Untouched iTunes file RESOLUTiON: 1280x720 RUNTiME: 1h 52m 43s SUBTiTLES: No. AUDiO: 384 Kbps AC3 5.1 LANGUAGE: ENGLiSH ENCODER: DdHD
Mary.and.the.Witchs.Flower.2018.BDRip.XviD.AC3-EVO
Submitted by: Mr. Meeseeks
Submitted on: April 20, 2018
ViDEO: 1300 Kbps -2 Passes RESOLUTiON: 720x384 RUNTiME: 1h 42m 43s SUBTiTLES: No. AUDiO: 448 Kbps AC3 5.1 LANGUAGE: ENGLiSH ENCODER: DdHD
Early Man 2018 READNFO HDRip XviD AC3-EVO
Listing: Early Man
Submitted by: Mr. Meeseeks
Submitted on: April 20, 2018
ViDEO: 1600 Kbps -2 Passes RESOLUTiON: 720x384 RUNTiME: 1h 24m 43s SUBTiTLES: No. AUDiO: 192 Kbps AC3 2.0 (CAM AUDIO) LANGUAGE: ENGLiSH ENCODER: DdHD
694 results - showing 1 - 20  
« 1 2 3 4 5 6 ... »