Latest download & stream reports

The reports below include movies found on pirate, magnet, torrent sites or retail digital streaming services such as iTunes, Netflix and Disney+
2949 results - showing 1 - 5  
« 1 2 3 4 5 6 ... »  
 
Dirty.God.2019.DVDRip.x264-CADAVER
Listing: Dirty God
Submitted by: Mr. Meeseeks
Submitted on: February 21, 2020
Video ID : 1 Format : AVC Format/Info : Advanced Video Codec Format profile : [email protected] Format settings : CABAC / 16 Ref Frames Format settings, CABAC : Yes Format settings, Reference frames : 16 frames Codec ID : V_MPEG4/ISO/AVC Duration : 1 h 39 min Bit rate : 517 kb/s Width : 720 pixels Height : 300 pixels Display aspect ratio : 2.40:1 Frame rate mode : Constant Frame rate : 25.000 FPS Color space : YUV Chroma subsampling : 4:2:0 Bit depth : 8 bits Scan type : Progressive Bits/(Pixel*Frame) : 0.096 Stream size : 369 MiB (80%) Writing library : x264 core 159 r2991 1771b55 Encoding settings : cabac=1 / ref=16 / deblock=1:-3:-3 / analyse=0x3:0x133 / me=umh / subme=10 / psy=1 / psy_rd=1.00:0.15 / mixed_ref=1 / me_range=24 / chroma_me=1 / trellis=2 / 8x8dct=1 / cqm=0 / deadzone=21,11 / fast_pskip=1 / chroma_qp_offset=-3 / threads=9 / lookahead_threads=1 / sliced_threads=0 / nr=0 / decimate=1 / interlaced=0 / bluray_compat=0 / constrained_intra=0 / bframes=8 / b_pyramid=2 / b_adapt=2 / b_bias=0 / direct=3 / weightb=1 / open_gop=0 / weightp=2 / keyint=250 / keyint_min=25 / scenecut=40 / intra_refresh=0 / rc_lookahead=60 / rc=crf / mbtree=1 / crf=19.0 / qcomp=0.60 / qpmin=0 / qpmax=69 / qpstep=4 / vbv_maxrate=17500 / vbv_bufsize=17500 / crf_max=0.0 / nal_hrd=none / filler=0 / ip_ratio=1.40 / aq=1:0.60 Default : Yes Forced : No Audio ID : 2 Format : AAC LC Format/Info : Advanced Audio Codec Low Complexity Codec ID : A_AAC-2 Duration : 1 h 39 min Bit rate : 126 kb/s Channel(s) : 2 channels Channel layout : L R Sampling rate : 48.0 kHz Frame rate : 46.875 FPS (1024 SPF) Compression mode : Lossy Delay relative to video : 20 ms Stream size : 89.7 MiB (19%) Language : English Default : Yes Forced : No
Goldie.2019.720p.WEBRip.800MB.x264-GalaxyRG
Listing: Goldie
Submitted by: Mr. Meeseeks
Submitted on: February 21, 2020
Container = Matroska (mkv) Duration = 01:28:32.757 Filesize = 797 MiB Overall bitrate = 1 258 kb/s Video Codec info = AVC [email protected] | V_MPEG4/ISO/AVC Resolution = 1280x688 Display AR = 1.857 | 1.85:1 Bitrate = 5 282 kb/s Framerate = VFR 23.976 Color space = YUV Chroma subsampling = 4:2:0 Encoder = x264 - core 157 Audio Codec info = AAC | A_AAC-2 Channels = 2 Bitrate = 384 kb/s Samplerate = 48.0 kHz Language = English
The.Night.Clerk.2019.720p.WEBRip.800MB.x264-GalaxyRG
Listing: The Night Clerk
Submitted by: Mr. Meeseeks
Submitted on: February 21, 2020
Container = Matroska (mkv) Duration = 01:30:32.169 Filesize = 796 MiB Overall bitrate = 1 229 kb/s Video Codec info = AVC [email protected] | V_MPEG4/ISO/AVC Resolution = 1280x720 Display AR = 1.778 | 16:9 Bitrate = 5 999 kb/s Framerate = VFR 23.976 Color space = YUV Chroma subsampling = 4:2:0 Encoder = x264 - core 157 Audio Codec info = AAC | A_AAC-2 Channels = 2 Bitrate = 258 kb/s Samplerate = 44.1 kHz Language = English
Standing.Up.Falling.Down.2019.720p.WEBRip.800MB.x264-GalaxyRG
Submitted by: Mr. Meeseeks
Submitted on: February 21, 2020
Container = Matroska (mkv) Duration = 01:31:15.125 Filesize = 797 MiB Overall bitrate = 1 221 kb/s Video Codec info = AVC [email protected] | V_MPEG4/ISO/AVC Resolution = 1280x640 Display AR = 2.008 | 2.008 Bitrate = 4 592 kb/s Framerate = VFR 23.976 Color space = YUV Chroma subsampling = 4:2:0 Encoder = x264 - core 157 Audio Codec info = AAC | A_AAC-2 Channels = 2 Bitrate = 384 kb/s Samplerate = 48.0 kHz Language = English
Queen.and.Slim.2019.1080p.BluRay.x264-YOL0W
Listing: Queen & Slim
Submitted by: armiestice
Submitted on: February 21, 2020
Date........: Wed 02/19/2020 . ___ Source......: BluRay . ( ( Runtime.....: 02:12:22.944 )/ Video.......: x264 / Resolution..: 1920x808 2.40:1 // Bitrate.....: 8 809 kb/s / FPS.........: 23.976 // Audio.......: AC3 .. Channels....: 5.1 . . Bitrate.....: 640 kb/s / __ Language....: English __ Subtitles...: None / Size........: 8947 MB
2949 results - showing 1 - 5  
« 1 2 3 4 5 6 ... »