Latest download & stream reports

The reports below include movies found on pirate, magnet, torrent sites or retail digital streaming services such as iTunes, Netflix and Disney+
2950 results - showing 81 - 100  
« 1 2 3 4 5 6 7 ... »  
 
Mr.Jones.2019.1080p.WEB-DL.H264.AC3-EVO
Listing: Mr. Jones
Submitted by: Mavoy
Submitted on: February 07, 2020
MEDIAINFO Container = Matroska (mkv) Duration = 01:58:42.496 Filesize = 4 GiB Overall bitrate = 4 480 kb/s ViDEO Codec info = AVC [email protected] | V_MPEG4/ISO/AVC Resolution = 1920x1080 Display AR = 1.778 | 16:9 Bitrate = 4 094 kb/s Framerate = CFR 24.000 Color space = YUV Chroma subsampling = 4:2:0 Encoder = x264 - core 155 r2901 7d0ff22 AUDiO Codec info = AC-3 | A_AC3 Channels = 6 Bitrate = CBR 384 kb/s Samplerate = 48.0 kHz Language = English
Knives.Out.2019.1080p.WEB-DL.DD5.1.x264-CMRG
Listing: Knives Out
Submitted by: Mavoy
Submitted on: February 07, 2020
Non-screener version is out! General Filename.......: Knives.Out.2019.1080p.WEB-DL.DD5.1.x264-CMRG.mkv FileSize.......: 7.30 GiB Duration.......: 2 h 10 min Video Codec..........: AVC x264 [email protected] Resolution.....: 1920x1080 Aspect ratio...: 16:9 Bit rate.......: 7 644 kb/s Frame rate.....: 23.976 fps Audio Language.......: English Channels.......: 6 CH Format.........: Dolby Digital Bit rate.......: 384 kb/s
A.Beautiful.Day.in.the.Neighborhood.2019.1080p.BluRay.x264-DRONES
Submitted by: armiestice
Submitted on: February 06, 2020
Video ID : 1 Format : AVC Format/Info : Advanced Video Codec Format profile : [email protected] Format settings : CABAC / 4 Ref Frames Format settings, CABAC : Yes Format settings, Reference frames : 4 frames Codec ID : V_MPEG4/ISO/AVC Duration : 1 h 48 min Bit rate : 8 564 kb/s Width : 1 920 pixels Height : 1 040 pixels Display aspect ratio : 1.85:1 Frame rate mode : Constant Frame rate : 23.976 (24000/1001) FPS Color space : YUV Chroma subsampling : 4:2:0 Bit depth : 8 bits Scan type : Progressive Bits/(Pixel*Frame) : 0.179 Stream size : 6.50 GiB (85%) Writing library : x264 core 159 r2991 1771b55 Encoding settings : cabac=1 / ref=4 / deblock=1:-3:-3 / analyse=0x3:0x113 / me=umh / subme=8 / psy=1 / psy_rd=1.00:0.00 / mixed_ref=1 / me_range=16 / chroma_me=1 / trellis=1 / 8x8dct=1 / cqm=0 / deadzone=21,11 / fast_pskip=1 / chroma_qp_offset=-2 / threads=30 / lookahead_threads=5 / sliced_threads=0 / nr=0 / decimate=1 / interlaced=0 / bluray_compat=0 / constrained_intra=0 / bframes=3 / b_pyramid=2 / b_adapt=1 / b_bias=0 / direct=3 / weightb=1 / open_gop=0 / weightp=2 / keyint=250 / keyint_min=23 / scenecut=40 / intra_refresh=0 / rc_lookahead=50 / rc=2pass / mbtree=1 / bitrate=8564 / ratetol=1.0 / qcomp=0.60 / qpmin=0 / qpmax=69 / qpstep=4 / cplxblur=20.0 / qblur=0.5 / ip_ratio=1.40 / aq=1:1.00 Language : English Default : Yes Forced : No Audio ID : 2 Format : DTS Format/Info : Digital Theater Systems Codec ID : A_DTS Duration : 1 h 48 min Bit rate mode : Constant Bit rate : 1 509 kb/s Channel(s) : 6 channels Channel layout : C L R Ls Rs LFE Sampling rate : 48.0 kHz Frame rate : 93.750 FPS (512 SPF) Bit depth : 24 bits Compression mode : Lossy Stream size : 1.15 GiB (15%) Language : English Default : Yes Forced : No
Jojo.Rabbit.2019.1080p.BluRay.x264-YOL0W
Listing: Jojo Rabbit
Submitted by: armiestice
Submitted on: February 06, 2020
)/ Video.......: x264 / Resolution..: 1920x1040 1.85:1 // Bitrate.....: 8 603 kb/s / FPS.........: 23.976 // Audio.......: DTS .. Channels....: 5.1 . . Bitrate.....: 1 509 kb/s / __ Language....: English __ Subtitles...: English / Size........: 7840 MB
Midway.2019.1080p.BluRay.1600MB.DD5.1.x264-GalaxyRG
Listing: Midway
Submitted by: Costa
Submitted on: February 06, 2020
Included subtitles: English MEDIAINFO: Container = Matroska (mkv) Duration = 02:18:24.352 Filesize = 2 GiB Overall bitrate = 1 659 kb/s Video Codec info = AVC [email protected] | V_MPEG4/ISO/AVC Resolution = 1920x816 Display AR = 2.376 | 2.40:1 Bitrate = 8 384 kb/s Framerate = VFR 23.976 Color space = YUV Chroma subsampling = 4:2:0 Encoder = x264 - core 157 Audio Codec info = AC-3 | A_AC3 Channels = 6 Bitrate = CBR 320 kb/s Samplerate = 48.0 kHz Language = English
21.Bridges.2019.1080p.BluRay.1400MB.DD5.1.x264-GalaxyRG
Listing: 21 Bridges
Submitted by: Costa
Submitted on: February 06, 2020
Included subtitles: English MEDIAINFO: Container = Matroska (mkv) Duration = 01:39:56.996 Filesize = 1 GiB Overall bitrate = 2 009 kb/s Video Codec info = AVC [email protected] | V_MPEG4/ISO/AVC Resolution = 1920x816 Display AR = 2.376 | 2.40:1 Bitrate = 9 426 kb/s Framerate = VFR 23.976 Color space = YUV Chroma subsampling = 4:2:0 Encoder = x264 - core 157 Audio Codec info = AC-3 | A_AC3 Channels = 6 Bitrate = CBR 320 kb/s Samplerate = 48.0 kHz Language = English
Dolittle.2020.720p.HDTC.900MB.c1nem4.x264-BONSAI[TGx]
Listing: Dolittle
Submitted by: Costa
Submitted on: February 06, 2020
Please be advised this upload has ads cut or watermarked into the video.
Corpus.Christi.2019.1080p.BluRay.x264-ROVERS
Listing: Corpus Christi
Submitted by: Mavoy
Submitted on: February 05, 2020
Not the first HD copy, but the previous ones had enormous size. This is a really good BluRay rip though. Including English subtitles so not only Polish people like me can watch ;) Date......: 05.02.2020 Video.....: X264 @ 10742kbps FPS.......: 24.000 Resolution: 1920x808 Size......: 10077MB (10566815844 Bytes) Audio.....: DTS 1509kbps 6ch Language..: Polish Subtitles.: English Runtime...: 1h 54mn
21.Bridges.2019.1080p.AMZN.WEB-DL.DDP5.1.H.264-NTG
Listing: 21 Bridges
Submitted by: Mavoy
Submitted on: February 04, 2020
[Video Bitrate]:.............: 9482kb/s [Duration]:.............: 1 h 39 min [Video Codec]:.............: AVC [Resolution]:.............: 1920x800 px [Aspect Ratio]:.............: 2.40:1 [Audio Codec]:.............: E-AC-3 [Audio Bitrate]:.............: 640kb/s [Audio Channels]:.............: 5.1ch [Audio Language]:.............: English
A.Beautiful.Day.in.the.Neighborhood.2019.1080p.AMZN.WEB-DL.DDP5.1.H.264-NTG
Submitted by: Mavoy
Submitted on: February 04, 2020
[Video Bitrate]:.............: 9643kb/s [Duration]:.............: 1 h 48 min [Video Codec]:.............: AVC [Resolution]:.............: 1920x1040 px [Aspect Ratio]:.............: 1.85:1 [Audio Codec]:.............: E-AC-3 [Audio Bitrate]:.............: 640kb/s [Audio Channels]:.............: 5.1ch [Audio Language]:.............: English
Jojo.Rabbit.2019.1080p.AMZN.WEB-DL.DDP5.1.H.264-NTG
Listing: Jojo Rabbit
Submitted by: Mavoy
Submitted on: February 04, 2020
[Video Bitrate]:.............: 10.0mb/s [Duration]:.............: 1 h 48 min [Video Codec]:.............: AVC [Resolution]:.............: 1920x1040 px [Aspect Ratio]:.............: 1.85:1 [Audio Codec]:.............: E-AC-3 [Audio Bitrate]:.............: 640kb/s [Audio Channels]:.............: 5.1ch [Audio Language]:.............: English
Midway.2019.1080p.WEB-DL.DD5.1.H264-FGT
Listing: Midway
Submitted by: armiestice
Submitted on: February 04, 2020
Video ID : 1 Format : AVC Format/Info : Advanced Video Codec Format profile : [email protected] Format settings : CABAC / 5 Ref Frames Format settings, CABAC : Yes Format settings, Reference frames : 5 frames Codec ID : V_MPEG4/ISO/AVC Duration : 2 h 18 min Bit rate : 4 458 kb/s Width : 1 920 pixels Height : 798 pixels Display aspect ratio : 2.40:1 Frame rate mode : Constant Frame rate : 23.976 FPS Color space : YUV Chroma subsampling : 4:2:0 Bit depth : 8 bits Scan type : Progressive Bits/(Pixel*Frame) : 0.121 Stream size : 4.31 GiB (92%) Title : Midway.2019.1080p.WEB-DL.DD5.1.H264-FGT Language : English Default : Yes Forced : No Color range : Limited Color primaries : BT.709 Transfer characteristics : BT.709 Matrix coefficients : BT.709 Audio ID : 2 Format : AC-3 Format/Info : Audio Coding 3 Commercial name : Dolby Digital Codec ID : A_AC3 Duration : 2 h 18 min Bit rate mode : Constant Bit rate : 384 kb/s Channel(s) : 6 channels Channel layout : L R C LFE Ls Rs Sampling rate : 48.0 kHz Frame rate : 31.250 FPS (1536 SPF) Bit depth : 16 bits Compression mode : Lossy Stream size : 380 MiB (8%) Title : Midway.2019.1080p.WEB-DL.DD5.1.H264-FGT Language : English Service kind : Complete Main Default : Yes Forced : No
Jojo.Rabbit.2019.1080p.WEBRip.DD5.1.x264-CM
Listing: Jojo Rabbit
Submitted by: armiestice
Submitted on: February 04, 2020
Video ID : 1 Format : AVC Format/Info : Advanced Video Codec Format profile : [email protected] Format settings : CABAC / 2 Ref Frames Format settings, CABAC : Yes Format settings, Reference frames : 2 frames Codec ID : V_MPEG4/ISO/AVC Duration : 1 h 48 min Bit rate : 7 741 kb/s Width : 1 920 pixels Height : 1 080 pixels Display aspect ratio : 16:9 Frame rate mode : Constant Frame rate : 23.976 (24000/1001) FPS Color space : YUV Chroma subsampling : 4:2:0 Bit depth : 8 bits Scan type : Progressive Bits/(Pixel*Frame) : 0.156 Stream size : 5.86 GiB (95%) Writing library : x264 core 155 r2901 7d0ff22 Language : English Default : Yes Forced : No Color range : Limited Color primaries : BT.709 Transfer characteristics : BT.709 Matrix coefficients : BT.709 Audio ID : 2 Format : AC-3 Format/Info : Audio Coding 3 Commercial name : Dolby Digital Codec ID : A_AC3 Duration : 1 h 48 min Bit rate mode : Constant Bit rate : 384 kb/s Channel(s) : 6 channels Channel layout : L R C LFE Ls Rs Sampling rate : 48.0 kHz Frame rate : 31.250 FPS (1536 SPF) Bit depth : 16 bits Compression mode : Lossy Stream size : 298 MiB (5%) Language : English Service kind : Complete Main Default : Yes Forced : No
A Beautiful Day In The Neighborhood 2019 1080p WEB-DL H264 AC3-EVO
Submitted by: armiestice
Submitted on: February 04, 2020
RELEASE: A.Beautiful.Day.In.The.Neighborhood.2019.1080p.WEB-DL.H264.AC3-EVO SOURCE: iTunes ViDEO: 5 200 kb/s - Untouched iTunes File RESOLUTiON: 1920x1032 RUNTiME: 1 h 48 min 45 s 519 ms SUBTiTLES: ENGLiSH AUDiO: 384 kb/s AC-3 6 channels LANGUAGE: ENGLiSH
Underwater.2020.720p.HDTS.900MB.c1nem4.x264-BONSAI[TGx]
Listing: Underwater
Submitted by: Costa
Submitted on: February 04, 2020
Please be advised this upload has ads cut or watermarked into the video.
The.Great.War.2019.1080p.BluRay.1400MB.DD5.1.x264-GalaxyRG
Listing: The Great War
Submitted by: Mavoy
Submitted on: February 04, 2020
MEDIAINFO Container = Matroska (mkv) Duration = 01:49:40.640 Filesize = 1 GiB Overall bitrate = 1 831 kb/s ViDEO Codec info = AVC [email protected] | V_MPEG4/ISO/AVC Resolution = 1920x816 Display AR = 2.376 | 2.40:1 Bitrate = 8 859 kb/s Framerate = VFR 23.976 Color space = YUV Chroma subsampling = 4:2:0 Encoder = x264 - core 157 AUDiO Codec info = AC-3 | A_AC3 Channels = 6 Bitrate = CBR 320 kb/s Samplerate = 48.0 kHz Language = English Included subtitles English
Hell.On.The.Border.2019.1080p.BluRay.x264-ROVERS
Submitted by: Mavoy
Submitted on: February 03, 2020
Container = Matroska (mkv) Duration = 01:50:06.646 Filesize = 9 GiB Overall bitrate = 11.4 Mb/s ViDEO Codec info = AVC [email protected] | V_MPEG4/ISO/AVC Resolution = 1920x800 Display AR = 2.400 | 2.40:1 Bitrate = 9 860 kb/s Framerate = CFR 23.976 Color space = YUV Chroma subsampling = 4:2:0 Encoder = x264 - core 159 r2991 1771b55 AUDiO Codec info = DTS | A_DTS Channels = 6 Bitrate = CBR 1 509 kb/s Samplerate = 48.0 kHz Language = Danish Included subtitles English
Jesus.Rolls.2019.1080p.WEB-DL.H264.AC3-EVO
Listing: The Jesus Rolls
Submitted by: Mavoy
Submitted on: February 03, 2020
Out more than a month early ... Container = Matroska (mkv) Duration = 01:21:51.800 Filesize = 3 GiB Overall bitrate = 5 572 kb/s ViDEO Codec info = AVC [email protected] | V_MPEG4/ISO/AVC Resolution = 1920x1038 Display AR = 1.850 | 1.85:1 Bitrate = 5 013 kb/s Framerate = CFR 25.000 Color space = YUV Chroma subsampling = 4:2:0 Encoder = AUDiO Codec info = AC-3 | A_AC3 Channels = 6 Bitrate = CBR 448 kb/s Samplerate = 48.0 kHz Language = English
Sorry.We.Missed.You.2019.1080p.WEB-DL.H264.AC3-EVO
Submitted by: Mavoy
Submitted on: February 03, 2020
[Video Bitrate]:.............: 5400kb/s [Duration]:.............: 1 h 41 min [Video Codec]:.............: AVC [Resolution]:.............: 1918x1038 px [Aspect Ratio]:.............: 1.85:1 [Audio Codec]:.............: AC-3 [Audio Bitrate]:.............: 384kb/s [Audio Channels]:.............: 5.1ch [Audio Language]:.............: English
21.Bridges.2019.1080p.HC.WEB-DL.AAC.2.0.x264-CMRG
Listing: 21 Bridges
Submitted by: Mavoy
Submitted on: February 02, 2020
RELEASE NAME : 21.Bridges.2019.1080p.HC.WEB-DL.AAC.2.0.x264-CMRG Overall bit rate : 7 786 kb/s RESOLUTiON : 1920x1080 RUNTiME : 1 h 39 min Video Info : 7 525 kb/s @23.976 (24000/1001) FPS Audio : AAC , 258 kb/s , 2 channels Subtitles : Korean (Hardcoded) SPECIAL THANKS TO: All Friends
2950 results - showing 81 - 100  
« 1 2 3 4 5 6 7 ... »