Latest download & stream reports

2230 results - showing 61 - 80  
« 1 2 3 4 5 6 ... »  
 
Skin.In.The.Game.2019.1080p.WEB-DL.H264.AC3-EVO
Listing: Skin In The Game
Submitted by: Ивана
Submitted on: July 05, 2019
Duration: 1h 30min Resolution: 1920x804 Language: English
Phil.2019.1080p.WEB-DL.DD5.1.H264-FGT
Listing: Phil
Submitted by: Ивана
Submitted on: July 05, 2019
Duration: 1h 41min Resolution: 1920x796 Language: English
SpiderMan Far From Home 2019 NEW HDCAM x264-ETRG
Submitted by: Mojib
Submitted on: July 04, 2019
While still a CAM, this is supposedly better than the 1xbet release.
Rocketman.2019.1080p.HC.HDRip.X264.AC3-EVO
Listing: Rocketman
Submitted by: Ивана
Submitted on: July 04, 2019
Duration: 2hs Resolution: 1920x800 Language: English
After.2019.1080p.BluRay.x264-DRONES
Listing: After
Submitted by: Tobden
Submitted on: July 03, 2019
Visual: 1920x808 8818Kbps 23.976 Acoustic: English DTS 1509Kbps 6ch Textual: English Target Size: 7834MB Mission Info: https://www.imdb.com/title/tt4126476 PG Rating: PG-13 IMDB Rating: 5.5/10 from 9661 users Metacritic: 30
Hellboy.2019.1080p.KORSUB.HDRip.x264.AAC2.0-STUTTERSHIT
Listing: Hellboy
Submitted by: Ивана
Submitted on: July 03, 2019
Duration: 2hs Resolution: 1920x804 Language: English Subtitles: Korean HC
Notes.On.An.Appearance.2018.1080p.WEB-DL.H264.AC3-EVO
Submitted by: Ивана
Submitted on: July 02, 2019
Duration: 1h Resolution: 1372x1028 Language: English
Teen.Spirit.2018.1080p.WEB-DL.DD5.1.H264-FGT
Listing: Teen Spirit
Submitted by: Mr. Meeseeks
Submitted on: July 02, 2019
MediaInfo « Video ID : 1 Format : AVC Format/Info : Advanced Video Codec Format profile : [email protected] Format settings : CABAC / 5 Ref Frames Format settings, CABAC : Yes Format settings, ReFrames : 5 frames Codec ID : V_MPEG4/ISO/AVC Duration : 1 h 33 min Bit rate : 4 604 kb/s Width : 1 916 pixels Height : 796 pixels Display aspect ratio : 2.40:1 Frame rate mode : Constant Frame rate : 23.976 FPS Color space : YUV Chroma subsampling : 4:2:0 Bit depth : 8 bits Scan type : Progressive Bits/(Pixel*Frame) : 0.126 Stream size : 3.01 GiB (92%) Title : Teen.Spirit.2018.1080p.WEB-DL.DD5.1.H264-FGT Language : English Default : Yes Forced : No Color range : Limited Color primaries : BT.709 Transfer characteristics : BT.709 Matrix coefficients : BT.709 Audio ID : 2 Format : AC-3 Format/Info : Audio Coding 3 Commercial name : Dolby Digital Codec ID : A_AC3 Duration : 1 h 33 min Bit rate mode : Constant Bit rate : 384 kb/s Channel(s) : 6 channels Channel layout : L R C LFE Ls Rs Sampling rate : 48.0 kHz Frame rate : 31.250 FPS (1536 SPF) Bit depth : 16 bits Compression mode : Lossy Stream size : 257 MiB (8%) Title : Teen.Spirit.2018.1080p.WEB-DL.DD5.1.H264-FGT Language : English Service kind : Complete Main Default : Yes Forced : No Text ID : 3 Format : UTF-8 Codec ID : S_TEXT/UTF8 Codec ID/Info : UTF-8 Plain Text Duration : 1 h 32 min Bit rate : 54 b/s Count of elements : 1213 Stream size : 37.0 KiB (0%) Language : English Default : Yes Forced : No
Ophelia.2018.1080p.WEB-DL.DD5.1.H264-FGT
Listing: Ophelia
Submitted by: Mr. Meeseeks
Submitted on: July 02, 2019
Video ID : 1 Format : AVC Format/Info : Advanced Video Codec Format profile : [email protected] Format settings : CABAC / 5 Ref Frames Format settings, CABAC : Yes Format settings, ReFrames : 5 frames Codec ID : V_MPEG4/ISO/AVC Duration : 1 h 46 min Bit rate : 4 532 kb/s Width : 1 920 pixels Height : 792 pixels Display aspect ratio : 2.40:1 Frame rate mode : Constant Frame rate : 23.976 (23976/1000) FPS Color space : YUV Chroma subsampling : 4:2:0 Bit depth : 8 bits Scan type : Progressive Bits/(Pixel*Frame) : 0.124 Stream size : 3.37 GiB (92%) Title : Ophelia.2018.1080p.WEB-DL.DD5.1.H264-FGT Language : English Default : Yes Forced : No Color range : Limited Color primaries : BT.709 Transfer characteristics : BT.709 Matrix coefficients : BT.709 Audio ID : 2 Format : AC-3 Format/Info : Audio Coding 3 Commercial name : Dolby Digital Codec ID : A_AC3 Duration : 1 h 46 min Bit rate mode : Constant Bit rate : 384 kb/s Channel(s) : 6 channels Channel layout : L R C LFE Ls Rs Sampling rate : 48.0 kHz Frame rate : 31.250 FPS (1536 SPF) Bit depth : 16 bits Compression mode : Lossy Stream size : 292 MiB (8%) Title : Ophelia.2018.1080p.WEB-DL.DD5.1.H264-FGT Language : English Service kind : Complete Main Default : Yes Forced : No Text ID : 3 Format : UTF-8 Codec ID : S_TEXT/UTF8 Codec ID/Info : UTF-8 Plain Text Duration : 1 h 43 min Bit rate : 44 b/s Count of elements : 1164 Stream size : 33.7 KiB (0%) Language : English Default : Yes Forced : No
The.Public.2018.1080p.WEB-DL.DD5.1.H264-FGT
Listing: The Public
Submitted by: Mr. Meeseeks
Submitted on: July 02, 2019
MediaInfo « Video ID : 1 Format : AVC Format/Info : Advanced Video Codec Format profile : [email protected] Format settings : CABAC / 5 Ref Frames Format settings, CABAC : Yes Format settings, ReFrames : 5 frames Codec ID : V_MPEG4/ISO/AVC Duration : 1 h 59 min Bit rate : 4 562 kb/s Width : 1 916 pixels Height : 794 pixels Display aspect ratio : 2.40:1 Frame rate mode : Constant Frame rate : 23.976 (23976/1000) FPS Color space : YUV Chroma subsampling : 4:2:0 Bit depth : 8 bits Scan type : Progressive Bits/(Pixel*Frame) : 0.125 Stream size : 3.81 GiB (92%) Title : The.Public.2018.1080p.WEB-DL.DD5.1.H264-FGT Language : English Default : Yes Forced : No Color range : Limited Color primaries : BT.709 Transfer characteristics : BT.709 Matrix coefficients : BT.709 Audio ID : 2 Format : AC-3 Format/Info : Audio Coding 3 Commercial name : Dolby Digital Codec ID : A_AC3 Duration : 1 h 59 min Bit rate mode : Constant Bit rate : 384 kb/s Channel(s) : 6 channels Channel layout : L R C LFE Ls Rs Sampling rate : 48.0 kHz Frame rate : 31.250 FPS (1536 SPF) Bit depth : 16 bits Compression mode : Lossy Stream size : 328 MiB (8%) Title : The.Public.2018.1080p.WEB-DL.DD5.1.H264-FGT Language : English Service kind : Complete Main Default : Yes Forced : No Text ID : 3 Format : UTF-8 Codec ID : S_TEXT/UTF8 Codec ID/Info : UTF-8 Plain Text Duration : 1 h 58 min Bit rate : 72 b/s Count of elements : 1914 Stream size : 63.0 KiB (0%) Language : English Default : Yes Forced : No
The.Professor.2018.1080p.BluRay.1400MB.DD5.1.x264-GalaxyRG
Listing: The Professor
Submitted by: Mr. Meeseeks
Submitted on: July 02, 2019
Container = Matroska (mkv) Duration = 01:31:37.539 Filesize = 1 GiB Overall bitrate = 2 192 kb/s Video Codec info = AVC [email protected] | V_MPEG4/ISO/AVC Resolution = 1920x1048 Display AR = 1.832 | 1.85:1 Bitrate = 1 869 kb/s Framerate = VFR Color space = YUV Chroma subsampling = 4:2:0 Encoder = x264 - core 148 r2748 97eaef2 Audio Codec info = AC-3 | A_AC3 Channels = 6 Bitrate = CBR 320 kb/s Samplerate = 48.0 kHz Language = English
Yesterday.2019.720p.HDCAM.900MB.1xbet.x264-BONSAI
Listing: Yesterday
Submitted by: Mr. Meeseeks
Submitted on: July 01, 2019
Container = Matroska (mkv) Duration = 02:03:43.861 Filesize = 897 MiB Overall bitrate = 1 013 kb/s Video Codec info = AVC [email protected] | V_MPEG4/ISO/AVC Resolution = 1280x544 Display AR = 2.388 | 2.40:1 Bitrate = Framerate = VFR Color space = YUV Chroma subsampling = 4:2:0 Encoder = x264 - core 148 r2748 97eaef2 Audio Codec info = AAC LC | A_AAC Channels = 2 Bitrate = Samplerate = 48.0 kHz Language = English
The.Hummingbird.Project.2018.720p.BluRay.x264-AAA
Submitted by: Mr. Meeseeks
Submitted on: July 01, 2019
Video ID : 1 Format : AVC Format/Info : Advanced Video Codec Format profile : [email protected] Format settings : CABAC / 5 Ref Frames Format settings, CABAC : Yes Format settings, ReFrames : 5 frames Codec ID : V_MPEG4/ISO/AVC Duration : 1 h 50 min Bit rate : 4 145 kb/s Width : 1 280 pixels Height : 544 pixels Display aspect ratio : 2.35:1 Frame rate mode : Constant Frame rate : 23.976 (24000/1001) FPS Color space : YUV Chroma subsampling : 4:2:0 Bit depth : 8 bits Scan type : Progressive Bits/(Pixel*Frame) : 0.248 Stream size : 3.20 GiB (73%) Writing library : x264 core 157 r2969 d4099dd Encoding settings : cabac=1 / ref=5 / deblock=1:1:1 / analyse=0x3:0x133 / me=umh / subme=8 / psy=1 / psy_rd=1.00:0.00 / mixed_ref=1 / me_range=16 / chroma_me=1 / trellis=2 / 8x8dct=1 / cqm=0 / deadzone=21,11 / fast_pskip=0 / chroma_qp_offset=-2 / threads=12 / lookahead_threads=2 / sliced_threads=0 / nr=0 / decimate=1 / interlaced=0 / bluray_compat=0 / constrained_intra=0 / bframes=3 / b_pyramid=2 / b_adapt=2 / b_bias=0 / direct=3 / weightb=1 / open_gop=0 / weightp=2 / keyint=250 / keyint_min=23 / scenecut=40 / intra_refresh=0 / rc_lookahead=50 / rc=2pass / mbtree=1 / bitrate=4145 / ratetol=1.0 / qcomp=0.60 / qpmin=0 / qpmax=69 / qpstep=4 / cplxblur=20.0 / qblur=0.5 / ip_ratio=1.40 / aq=1:1.00 Language : English Default : Yes Forced : No Audio ID : 2 Format : DTS Format/Info : Digital Theater Systems Codec ID : A_DTS Duration : 1 h 50 min Bit rate mode : Constant Bit rate : 1 509 kb/s Channel(s) : 6 channels Channel layout : C L R Ls Rs LFE Sampling rate : 48.0 kHz Frame rate : 93.750 FPS (512 SPF) Bit depth : 24 bits Compression mode : Lossy Stream size : 1.17 GiB (27%) Language : English Default : Yes Forced : No Text ID : 3 Format : UTF-8 Codec ID : S_TEXT/UTF8 Codec ID/Info : UTF-8 Plain Text Duration : 1 h 45 min Bit rate : 89 b/s Count of elements : 2210 Stream size : 69.1 KiB (0%) Language : English Default : No Forced : No
Spider-Man.Far.From.Home.2019.720p.HDCAM.900MB.1xbet.x264-BONSAI[TGx]
Submitted by: Costa
Submitted on: June 30, 2019
MEDIAINFO Container = Matroska (mkv) Duration = 01:54:34.837 Filesize = 897 MiB Overall bitrate = 1 095 kb/s Video Codec info = AVC [email protected] | V_MPEG4/ISO/AVC Resolution = 1280x544 Display AR = 2.388 | 2.40:1 Bitrate = Framerate = VFR Color space = YUV Chroma subsampling = 4:2:0 Encoder = x264 - core 148 r2748 97eaef2 Audio Codec info = AAC LC | A_AAC Channels = 2 Bitrate = Samplerate = 48.0 kHz Language = English
Little.2019.1080p.BluRay.x264-DRONES
Listing: Little
Submitted by: Tobden
Submitted on: June 29, 2019
Visual: 1920x1040 8559Kbps 23.976 Acoustic: English DTS 1509Kbps 6ch Textual: English Target Size: 7832MB Mission Info: https://www.imdb.com/title/tt8085790 PG Rating: PG-13 IMDB Rating: 5.3/10 from 3255 users Updated : 2019-06-29 Metacritic: 49
Donbass.2018.LiMiTED.1080p.BluRay.x264-CADAVER
Listing: Donbass
Submitted by: Ивана
Submitted on: June 29, 2019
Duration: 2hs 1min Resolution: 1920x800 Language: Russian Subtitiles: English
Pet.Sematary.2019.1080p.BluRay.x264-GECKOS
Listing: Pet Sematary
Submitted by: Ивана
Submitted on: June 29, 2019
Duration: 1h 40min Resolution: 1920x808 Language: English
ohn.Wick.3.2019.TRUECAM.XviD-AVID[TGx]
Submitted by: Costa
Submitted on: June 29, 2019
MEDIAINFO Container = AVI (avi) Duration = 02:01:53.006 Filesize = 1 GiB Overall bitrate = 1 541 kb/s Video Codec info = MPEG-4 Visual Advanced [email protected] | XVID Resolution = 720x404 Display AR = 2.200 | 2.2:1 Bitrate = 1 398 kb/s Framerate = 24.000 Color space = YUV Chroma subsampling = 4:2:0 Encoder = XviD0067 Audio Codec info = MPEG Audio Layer 3 | 55 Channels = 2 Bitrate = CBR 128 kb/s Samplerate = 44.1 kHz Language = English
No.Manches.Frida.2.2019.SPANiSH.1080p.BluRay.x264-dem3nt3
Submitted by: Tobden
Submitted on: June 28, 2019
IMDB: https://www.imdb.com/title/tt9019352/ Quality: HD 1080p Resolution: 1908x788 Format: MKV Audio: Spanish Latin AC3 5.1 Subtitle: NO Duration: 1hr 42min Size: 3.68GB
Alita Battle Angel 2019 1080p WEB-DL NO ADS x264-1XBET
Submitted by: Mavoy
Submitted on: June 28, 2019
Surprisingly for 1XBET release, the name of the file is correct. I didn't notice watermarks, no ads whatsover. Video quality is great. It's likely Russian iTunes release, as it was scheduled for today.
2230 results - showing 61 - 80  
« 1 2 3 4 5 6 ... »