Latest download & stream reports

The reports below include movies found on pirate torrent sites or official, retail digital download services such as iTunes, Netflix and Amazon. As pirated versions of the film varies in quality, a video and audio rating is included on the film's dedicated page.
Physical releases, such as BluRay and DVDs, are not being reported. Also note that the reports are provided by members of the Where You Watch community and we do not allow links to pirate sites.

See our new movie calendar for upcoming home release dates.
2416 results - showing 61 - 80  
« 1 2 3 4 5 6 ... »  
 
In.Fabric.2018.1080p.BluRay.X264-AMIABLE
Listing: In Fabric
Submitted by: Mr. Meeseeks
Submitted on: August 28, 2019
Video ID : 1 Format : AVC Format/Info : Advanced Video Codec Format profile : [email protected] Format settings : CABAC / 5 Ref Frames Format settings, CABAC : Yes Format settings, Reference frames : 5 frames Codec ID : V_MPEG4/ISO/AVC Duration : 1 h 58 min Bit rate : 9 037 kb/s Width : 1 920 pixels Height : 808 pixels Display aspect ratio : 2.40:1 Frame rate mode : Constant Frame rate : 24.000 FPS Color space : YUV Chroma subsampling : 4:2:0 Bit depth : 8 bits Scan type : Progressive Bits/(Pixel*Frame) : 0.243 Stream size : 7.32 GiB (84%) Writing library : x264 core 158 r2984 3759fcb Encoding settings : cabac=1 / ref=5 / deblock=1:-3:-3 / analyse=0x3:0x113 / me=umh / subme=8 / psy=1 / psy_rd=1.00:0.00 / mixed_ref=1 / me_range=32 / chroma_me=1 / trellis=2 / 8x8dct=1 / cqm=0 / deadzone=21,11 / fast_pskip=1 / chroma_qp_offset=-2 / threads=18 / lookahead_threads=3 / sliced_threads=0 / nr=0 / decimate=1 / interlaced=0 / bluray_compat=0 / constrained_intra=0 / bframes=3 / b_pyramid=2 / b_adapt=2 / b_bias=0 / direct=3 / weightb=1 / open_gop=0 / weightp=2 / keyint=240 / keyint_min=24 / scenecut=40 / intra_refresh=0 / rc_lookahead=50 / rc=2pass / mbtree=1 / bitrate=9037 / ratetol=1.0 / qcomp=0.60 / qpmin=0 / qpmax=69 / qpstep=4 / cplxblur=20.0 / qblur=0.5 / ip_ratio=1.40 / aq=3:0.80 Default : Yes Forced : No Statistics Tags Issue : no_variable_data 1970-01-01 00:00:00 / no_variable_data 2010-02-22 21:41:29 FromStats_BitRate : 9032651 FromStats_Duration : 01:58:41.042000000 FromStats_FrameCount : 170905 FromStats_StreamSize : 8040235992 Audio ID : 2 Format : DTS Format/Info : Digital Theater Systems Codec ID : A_DTS Duration : 1 h 58 min Bit rate mode : Constant Bit rate : 1 509 kb/s Channel(s) : 6 channels Channel layout : C L R Ls Rs LFE Sampling rate : 48.0 kHz Frame rate : 93.750 FPS (512 SPF) Bit depth : 24 bits Compression mode : Lossy Stream size : 1.25 GiB (14%) Language : English Default : Yes Forced : No Statistics Tags Issue : no_variable_data 1970-01-01 00:00:00 / no_variable_data 2010-02-22 21:41:29 FromStats_BitRate : 1508999 FromStats_Duration : 01:58:41.035000000 FromStats_FrameCount : 667597 FromStats_StreamSize : 1343205164 Text #1 ID : 3 Format : UTF-8 Codec ID : S_TEXT/UTF8 Codec ID/Info : UTF-8 Plain Text Language : English Default : No Forced : No Statistics Tags Issue : no_variable_data 1970-01-01 00:00:00 / no_variable_data 2010-02-22 21:41:29 FromStats_BitRate : 46 FromStats_Duration : 01:54:29.584000000 FromStats_FrameCount : 1005 FromStats_StreamSize : 40199 Text #2 ID : 4 Format : UTF-8 Codec ID : S_TEXT/UTF8 Codec ID/Info : UTF-8 Plain Text Title : SDH Language : English Default : No Forced : No Statistics Tags Issue : no_variable_data 1970-01-01 00:00:00 / no_variable_data 2010-02-22 21:41:29 FromStats_BitRate : 54 FromStats_Duration : 01:56:21.917000000 FromStats_FrameCount : 1209 FromStats_StreamSize : 47803
Stuck.2017.1080p.AMZN.WEBRip.DDP2.0.x264-NTG
Listing: Stuck
Submitted by: Mr. Meeseeks
Submitted on: August 27, 2019
Video ID : 1 Format : AVC Format/Info : Advanced Video Codec Format profile : [email protected] Format settings : CABAC / 4 Ref Frames Format settings, CABAC : Yes Format settings, Reference frames : 4 frames Codec ID : V_MPEG4/ISO/AVC Duration : 1 h 23 min Bit rate mode : Constant Bit rate : 8 966 kb/s Nominal bit rate : 10 000 kb/s Width : 1 920 pixels Height : 1 080 pixels Display aspect ratio : 16:9 Frame rate mode : Constant Frame rate : 23.976 (24000/1001) FPS Color space : YUV Chroma subsampling : 4:2:0 Bit depth : 8 bits Scan type : Progressive Bits/(Pixel*Frame) : 0.180 Stream size : 5.25 GiB (98%) Default : Yes Forced : No Color range : Limited Color primaries : BT.709 Transfer characteristics : BT.709 Matrix coefficients : BT.709 Audio ID : 2 Format : E-AC-3 Format/Info : Enhanced AC-3 Commercial name : Dolby Digital Plus Codec ID : A_EAC3 Duration : 1 h 23 min Bit rate mode : Constant Bit rate : 224 kb/s Channel(s) : 2 channels Channel layout : L R Sampling rate : 48.0 kHz Frame rate : 31.250 FPS (1536 SPF) Compression mode : Lossy Stream size : 134 MiB (2%) Language : English Service kind : Complete Main Default : Yes Forced : No Text #1 ID : 3 Format : UTF-8 Codec ID : S_TEXT/UTF8 Codec ID/Info : UTF-8 Plain Text Duration : 1 h 22 min Bit rate : 61 b/s Count of elements : 1176 Stream size : 37.2 KiB (0%) Language : English Default : No Forced : No Text #2 ID : 4 Format : UTF-8 Codec ID : S_TEXT/UTF8 Codec ID/Info : UTF-8 Plain Text Duration : 1 h 23 min Bit rate : 66 b/s Count of elements : 1360 Stream size : 40.3 KiB (0%) Title : SDH Language : English Default : No Forced : No
Secrets of Blackmoor
Submitted by: Guest
Submitted on: August 27, 2019
Direct link: http://movie.secretsofblackmoor.com/
Ladyworld.2018.1080p.WEB-DL.DD5.1.H264-FGT
Listing: Ladyworld
Submitted by: Mr. Meeseeks
Submitted on: August 27, 2019
Video ID : 1 Format : AVC Format/Info : Advanced Video Codec Format profile : [email protected] Format settings : CABAC / 5 Ref Frames Format settings, CABAC : Yes Format settings, Reference frames : 5 frames Codec ID : V_MPEG4/ISO/AVC Duration : 1 h 33 min Bit rate : 4 538 kb/s Width : 1 920 pixels Height : 816 pixels Display aspect ratio : 2.35:1 Frame rate mode : Constant Frame rate : 23.976 (24000/1001) FPS Color space : YUV Chroma subsampling : 4:2:0 Bit depth : 8 bits Scan type : Progressive Bits/(Pixel*Frame) : 0.121 Stream size : 2.97 GiB (92%) Title : Ladyworld.2018.1080p.WEB-DL.DD5.1.H264-FGT Language : English Default : Yes Forced : No Color range : Limited Color primaries : BT.709 Transfer characteristics : BT.709 Matrix coefficients : BT.709 Audio ID : 2 Format : AC-3 Format/Info : Audio Coding 3 Commercial name : Dolby Digital Codec ID : A_AC3 Duration : 1 h 33 min Bit rate mode : Constant Bit rate : 384 kb/s Channel(s) : 6 channels Channel layout : L R C LFE Ls Rs Sampling rate : 48.0 kHz Frame rate : 31.250 FPS (1536 SPF) Bit depth : 16 bits Compression mode : Lossy Stream size : 257 MiB (8%) Title : Ladyworld.2018.1080p.WEB-DL.DD5.1.H264-FGT Language : English Service kind : Complete Main Default : Yes Forced : No Text ID : 3 Format : UTF-8 Codec ID : S_TEXT/UTF8 Codec ID/Info : UTF-8 Plain Text Duration : 1 h 32 min Bit rate : 52 b/s Count of elements : 1020 Stream size : 35.2 KiB (0%) Language : English Default : Yes Forced : No
Midsommar.2019.720p.HDCAM.900MB.getb8.x264-BONSAI
Listing: Midsommar
Submitted by: Ivana 🌿
Submitted on: August 27, 2019
Duration: 2hs 23mins Resolution: 1280x640 Language: English This upload has ads cut or watermarked into the video.
In.Fabric.2019.1080p.WEB-DL.H264.AC3-EVO[TGx]
Listing: In Fabric
Submitted by: Pedro Gabriel
Submitted on: August 26, 2019
Container = Matroska (mkv) Duration = 01:58:41.088 Filesize = 4 GiB Overall bitrate = 4 954 kb/s ViDEO Codec info = AVC [email protected] | V_MPEG4/ISO/AVC Resolution = 1916x800 Display AR = 2.395 | 2.40:1 Bitrate = 4 569 kb/s Framerate = CFR 24.000 Color space = YUV Chroma subsampling = 4:2:0 Encoder = AUDiO Codec info = AC-3 | A_AC3 Channels = 6 Bitrate = CBR 384 kb/s Samplerate = 48.0 kHz Language = English
Booksmart.2019.1080p.BluRay.x264-DRONES
Listing: Booksmart
Submitted by: Tobden
Submitted on: August 24, 2019
Visual : 1920x808 9205kbps 23.976 Acoustic : English DTS 1509kbps 6ch Textual : English forced, English SDH Target Size : 7834MB Mission Info : https://www.imdb.com/title/tt1489887 PG Rating: R IMDB Rating: 7.4/10 from 31454 users Updated : 2019-08-19 Metacritic: 84 Rotten Rating: 8.39/10 RottenTomatoes: [fresh!] 97% [audience liked it!] 77%
Aladdin.2019.1080p.BluRay.x264-SPARKS
Listing: Aladdin
Submitted by: Tobden
Submitted on: August 24, 2019
Release.Date: 24.08.2019 Video.......: X264 9495kbps Frame.Rate..: 23.976 Resolution..: 1920x808 Audio.......: DTS 1509kbps 6ch Language....: English Length......: 2h 08mn Source......: Retail BluRay Size........: 10074MB Subtitles...: English SDH IMDb: https://www.imdb.com/title/tt6139732 PG Rating: PG IMDB Rating: 7.2/10 from 108749 users Updated : 2019-08-24 Metacritic: 53 Rotten Rating: 5.42/10 RottenTomatoes: [fresh!] 57% [audience liked it!] 94%
Men.in.Black.International.2019.720p.BluRay.x264-GECKOS
Submitted by: Tobden
Submitted on: August 23, 2019
Date : 22.08.2019 URL : https://www.imdb.com/title/tt2283336 X264 bitrate : 5303Kbps Resolution : 1280x640 Size : 5597MB (5868489119 Bytes) Audio : DTS 1509Kbps 6ch Language : English Subtitles : English Runtime : 1h 54mn PG Rating: PG-13 IMDB Rating: 5.6/10 from 41959 users Updated : 2019-08-23 Metacritic: 38 Rotten Rating: 4.27/10 RottenTomatoes: fresh! 22% audience liked it! 66%
Ma.2019.1080p.Bluray.DTS-HD.MA.5.1.x264-EVO
Listing: Ma
Submitted by: Mr. Meeseeks
Submitted on: August 23, 2019
Container = Matroska (mkv) Duration = 01:39:21.792 Filesize = 11 GiB Overall bitrate = 15.4 Mb/s ViDEO Codec info = AVC [email protected] | V_MPEG4/ISO/AVC Resolution = 1920x800 Display AR = 2.400 | 2.40:1 Bitrate = Framerate = CFR 23.976 Color space = YUV Chroma subsampling = 4:2:0 Encoder = x264 - core 157 r2935 545de2f AUDiO Codec info = DTS MA / Core | A_DTS Channels = 6 Bitrate = VBR / CBR Unknown / 1 509 kb/s Samplerate = 48.0 kHz Language = English
Tone.Deaf.2019.1080p.WEB-DL.DD5.1.H264-FGT
Listing: Tone-Deaf
Submitted by: Mr. Meeseeks
Submitted on: August 23, 2019
Video ID : 1 Format : AVC Format/Info : Advanced Video Codec Format profile : [email protected] Format settings : CABAC / 5 Ref Frames Format settings, CABAC : Yes Format settings, Reference frames : 5 frames Codec ID : V_MPEG4/ISO/AVC Duration : 1 h 27 min Bit rate : 4 543 kb/s Width : 1 908 pixels Height : 792 pixels Display aspect ratio : 2.40:1 Frame rate mode : Constant Frame rate : 23.976 FPS Color space : YUV Chroma subsampling : 4:2:0 Bit depth : 8 bits Scan type : Progressive Bits/(Pixel*Frame) : 0.125 Stream size : 2.78 GiB (92%) Title : Tone.Deaf.2019.1080p.WEB-DL.DD5.1.H264-FGT Language : English Default : Yes Forced : No Color range : Limited Color primaries : BT.709 Transfer characteristics : BT.709 Matrix coefficients : BT.709 Audio ID : 2 Format : AC-3 Format/Info : Audio Coding 3 Commercial name : Dolby Digital Codec ID : A_AC3 Duration : 1 h 27 min Bit rate mode : Constant Bit rate : 384 kb/s Channel(s) : 6 channels Channel layout : L R C LFE Ls Rs Sampling rate : 48.0 kHz Frame rate : 31.250 FPS (1536 SPF) Bit depth : 16 bits Compression mode : Lossy Stream size : 241 MiB (8%) Title : Tone.Deaf.2019.1080p.WEB-DL.DD5.1.H264-FGT Language : English Service kind : Complete Main Default : Yes Forced : No Text ID : 3 Format : UTF-8 Codec ID : S_TEXT/UTF8 Codec ID/Info : UTF-8 Plain Text Duration : 1 h 26 min Bit rate : 72 b/s Count of elements : 1127 Stream size : 45.8 KiB (0%) Language : English Default : Yes Forced : No
Jacobs.Ladder.2019.1080p.WEB-DL.DD5.1.H264-FGT
Listing: Jacob's Ladder
Submitted by: Mr. Meeseeks
Submitted on: August 23, 2019
Video ID : 1 Format : AVC Format/Info : Advanced Video Codec Format profile : [email protected] Format settings : CABAC / 5 Ref Frames Format settings, CABAC : Yes Format settings, Reference frames : 5 frames Codec ID : V_MPEG4/ISO/AVC Duration : 1 h 29 min Bit rate : 4 571 kb/s Width : 1 920 pixels Height : 788 pixels Display aspect ratio : 2.40:1 Frame rate mode : Constant Frame rate : 23.976 (24000/1001) FPS Color space : YUV Chroma subsampling : 4:2:0 Bit depth : 8 bits Scan type : Progressive Bits/(Pixel*Frame) : 0.126 Stream size : 2.86 GiB (92%) Title : Jacobs Ladder.2019.1080p.WEB-DL.DD5.1.H264-FGT Language : English Default : Yes Forced : No Color range : Limited Color primaries : BT.709 Transfer characteristics : BT.709 Matrix coefficients : BT.709 Audio ID : 2 Format : AC-3 Format/Info : Audio Coding 3 Commercial name : Dolby Digital Codec ID : A_AC3 Duration : 1 h 29 min Bit rate mode : Constant Bit rate : 384 kb/s Channel(s) : 6 channels Channel layout : L R C LFE Ls Rs Sampling rate : 48.0 kHz Frame rate : 31.250 FPS (1536 SPF) Bit depth : 16 bits Compression mode : Lossy Stream size : 246 MiB (8%) Title : Jacobs Ladder.2019.1080p.WEB-DL.DD5.1.H264-FGT Language : English Service kind : Complete Main Default : Yes Forced : No Text ID : 3 Format : UTF-8 Codec ID : S_TEXT/UTF8 Codec ID/Info : UTF-8 Plain Text Duration : 1 h 19 min Bit rate : 44 b/s Count of elements : 952 Stream size : 25.7 KiB (0%) Language : English Default : Yes Forced : No
Burn.2019.720p.WEBRip.800MB.x264-GalaxyRG[
Listing: Burn
Submitted by: Mr. Meeseeks
Submitted on: August 23, 2019
Container = Matroska (mkv) Duration = 01:28:09.813 Filesize = 797 MiB Overall bitrate = 1 263 kb/s Video Codec info = AVC [email protected] | V_MPEG4/ISO/AVC Resolution = 1280x672 Display AR = 1.897 | 1.897 Bitrate = Framerate = VFR Color space = YUV Chroma subsampling = 4:2:0 Encoder = x264 - core 148 r2748 97eaef2 Audio Codec info = AAC LC | A_AAC Channels = 2 Bitrate = Samplerate = 48.0 kHz Language = English
Hot.Air.2018.1080p.WEB-DL.DD5.1.H264-FGT
Listing: Hot Air
Submitted by: Mr. Meeseeks
Submitted on: August 22, 2019
Video ID : 1 Format : AVC Format/Info : Advanced Video Codec Format profile : [email protected] Format settings : CABAC / 4 Ref Frames Format settings, CABAC : Yes Format settings, Reference frames : 4 frames Codec ID : V_MPEG4/ISO/AVC Duration : 1 h 43 min Bit rate : 5 081 kb/s Width : 1 912 pixels Height : 1 028 pixels Display aspect ratio : 1.85:1 Frame rate mode : Constant Frame rate : 23.976 (24000/1001) FPS Color space : YUV Chroma subsampling : 4:2:0 Bit depth : 8 bits Scan type : Progressive Bits/(Pixel*Frame) : 0.108 Stream size : 3.68 GiB (93%) Title : Hot.Air.2018.1080p.WEB-DL.DD5.1.H264-FGT Language : English Default : Yes Forced : No Color range : Limited Color primaries : BT.709 Transfer characteristics : BT.709 Matrix coefficients : BT.709 Audio ID : 2 Format : AC-3 Format/Info : Audio Coding 3 Commercial name : Dolby Digital Codec ID : A_AC3 Duration : 1 h 43 min Bit rate mode : Constant Bit rate : 384 kb/s Channel(s) : 6 channels Channel layout : L R C LFE Ls Rs Sampling rate : 48.0 kHz Frame rate : 31.250 FPS (1536 SPF) Bit depth : 16 bits Compression mode : Lossy Stream size : 285 MiB (7%) Title : Hot.Air.2018.1080p.WEB-DL.DD5.1.H264-FGT Language : English Service kind : Complete Main Default : Yes Forced : No
Angel Has Fallen 2019 HDCAM x264 AC3-ETRG
Listing: Angel Has Fallen
Submitted by: Mojib
Submitted on: August 22, 2019
I can't find any info on this release.
All.Is.True.2018.1080p.BluRay.H264.AAC-RARBG
Listing: All Is True
Submitted by: Ivana 🌿
Submitted on: August 22, 2019
Duration: 1h 40min Resolution: 1920x808 Language: English
American.Factory.2019.1080p.NF.WEB-DL.DDP5.1.x264-NTG
Listing: American Factory
Submitted by: Ivana 🌿
Submitted on: August 22, 2019
Duration: 1h 50min Resolution: 1920x1080 Language: English
Tito.and.The.Birds.2018.PORTUGUESE.1080p.AMZN.WEBRip.DDP5.1.x264-KAMIKAZE
Submitted by: Ivana 🌿
Submitted on: August 21, 2019
Duration: 1h 13min Resolution: 1920x872 Language: Portuguese Subtitles: English
The.Third.Murder.2017.JAPANESE.1080p.BluRay.AVC.DTS-HD.MA.5.1-FGT
Listing: The Third Murder
Submitted by: Mr. Meeseeks
Submitted on: August 21, 2019
DISC INFO: Disc Title: The.Third.Murder.2017.JAPANESE.1080p.BluRay.AVC.DTS-HD.MA.5.1-FGT Disc Size: 48,852,038,735 bytes Protection: AACS BD-Java: No BDInfo: 0.5.8.7 (compatible layout created by DVDFab 10.2.0.2) PLAYLIST REPORT: Name: 00001.MPLS Length: 2:04:51.734 (h:m:s.ms) Size: 35,122,372,608 bytes Total Bitrate: 37.51 Mbps VIDEO: Codec Bitrate Description ----- ------- ----------- MPEG-4 AVC Video 29845 kbps 1080p / 23.976 fps / 16:9 / High Profile 4.1 / AUDIO: Codec Language Bitrate Description ----- -------- ------- ----------- DTS-HD Master Audio Japanese 3421 kbps 5.1 / 48 kHz / 3421 kbps / 24-bit (DTS Core: 5.1 / 48 kHz / 1509 kbps / 24-bit) LPCM Audio Japanese 2304 kbps 2.0 / 48 kHz / 2304 kbps / 24-bit SUBTITLES: Codec Language Bitrate Description ----- -------- ------- ----------- Presentation Graphics English 23.358 kbps
I Am Patrick Swayze 2019 720p WEB x264-CookieMonster
Submitted by: Cupio Dissolvi
Submitted on: August 20, 2019
Genre: Biography IMDB Rating: 8.2/10 From 12 Users Directed by: Adrian Buitenhuis Starring: Jennifer Grey , Lori Petty , Sam Elliott , Demi Moore Release Name: I.Am.Patrick.Swayze.2019.web.x264-cookiemonster Size: 776 MiB Video: MKV | 960×540 | 1 226 kb/s Audio: English | AAC | 128 kb/s Runtime: 1 h 20 min Subtitles: N/A Samples: Video @ #1 – #2 – #3 Release Name: I.Am.Patrick.Swayze.2019.720p.WEB.x264-CookieMonster Size: 1.18 GiB Video: MKV | 1280×720 | 1 982 kb/s Audio: English | AAC | 128 kb/s Runtime: 1 h 20 min Subtitles: N/A Samples: Video @ #1 – #2 – #3 Release Name: I.Am.Patrick.Swayze.2019.1080p.web.x264-cookiemonster Size: 2.34 GiB Video: MKV | 1920×1080 | 4 065 kb/s Audio: English | AAC | 128 kb/s Runtime: 1 h 20 min Subtitles: N/A Samples: Video @ #1 – #2 – #3
2416 results - showing 61 - 80  
« 1 2 3 4 5 6 ... »