Latest download & stream reports

The reports below include movies found on pirate streams, torrent sites or retail digital streaming services such as iTunes, Netflix and Disney+.
 
3273 results - showing 61 - 80  
« 1 2 3 4 5 6 ... »  
 
Im.No.Longer.Here.2019.SPANISH.ENSUBBED.1080p.NF.WEBRip.DDP5.1.x264-CM
Submitted by: Mr. Meeseeks
Submitted on: May 30, 2020
Video ID : 1 Format : AVC Format/Info : Advanced Video Codec Format profile : High@L4 Format settings : CABAC / 3 Ref Frames Format settings, CABAC : Yes Format settings, Reference frames : 3 frames Codec ID : V_MPEG4/ISO/AVC Duration : 1 h 52 min Bit rate : 6 621 kb/s Width : 1 920 pixels Height : 1 080 pixels Display aspect ratio : 16:9 Frame rate mode : Constant Frame rate : 23.976 (24000/1001) FPS Color space : YUV Chroma subsampling : 4:2:0 Bit depth : 8 bits Scan type : Progressive Bits/(Pixel*Frame) : 0.133 Stream size : 5.19 GiB (91%) Default : Yes Forced : No Audio ID : 2 Format : E-AC-3 Format/Info : Enhanced AC-3 Commercial name : Dolby Digital Plus Codec ID : A_EAC3 Duration : 1 h 52 min Bit rate mode : Constant Bit rate : 640 kb/s Channel(s) : 6 channels Channel layout : L R C LFE Ls Rs Sampling rate : 48.0 kHz Frame rate : 31.250 FPS (1536 SPF) Compression mode : Lossy Stream size : 514 MiB (9%) Language : Spanish Service kind : Complete Main Default : Yes Forced : No Text ID : 3 Format : UTF-8 Codec ID : S_TEXT/UTF8 Codec ID/Info : UTF-8 Plain Text Duration : 1 h 51 min Bit rate : 42 b/s Count of elements : 973 Stream size : 34.4 KiB (0%) Language : English Default : Yes Forced : Yes
Lady.Like.2017.1080p.BluRay.x264-GETiT
Listing: Lady-Like
Submitted by: Mr. Meeseeks
Submitted on: May 30, 2020
Video Bitrate ......: 1920 x 1040 @ 6148 kbps Audio Bitrate ......: ENG DTS 5.1 @ 1509 kbps Substitles .........: German
After.Midnight.2019.1080p.BluRay.x264.DTS-FGT
Listing: After Midnight
Submitted by: Mr. Meeseeks
Submitted on: May 30, 2020
Video ID : 1 Format : AVC Format/Info : Advanced Video Codec Format profile : High@L4.1 Format settings : CABAC / 4 Ref Frames Format settings, CABAC : Yes Format settings, Reference frames : 4 frames Codec ID : V_MPEG4/ISO/AVC Duration : 1 h 23 min Bit rate : 11.5 Mb/s Width : 1 920 pixels Height : 804 pixels Display aspect ratio : 2.40:1 Frame rate mode : Constant Frame rate : 23.976 (24000/1001) FPS Color space : YUV Chroma subsampling : 4:2:0 Bit depth : 8 bits Scan type : Progressive Bits/(Pixel*Frame) : 0.311 Stream size : 6.68 GiB (88%) Writing library : x264 core 148 r2795M aaa9aa8 Encoding settings : cabac=1 / ref=4 / deblock=1:-2:-2 / analyse=0x3:0x113 / me=umh / subme=9 / psy=1 / psy_rd=1.00:0.15 / mixed_ref=1 / me_range=16 / chroma_me=1 / trellis=2 / 8x8dct=1 / cqm=0 / deadzone=21,11 / fast_pskip=1 / chroma_qp_offset=-3 / threads=24 / lookahead_threads=3 / sliced_threads=0 / nr=0 / decimate=1 / interlaced=0 / bluray_compat=0 / constrained_intra=0 / bframes=3 / b_pyramid=2 / b_adapt=1 / b_bias=0 / direct=3 / weightb=1 / open_gop=0 / weightp=2 / keyint=250 / keyint_min=25 / scenecut=40 / intra_refresh=0 / rc_lookahead=50 / rc=2pass / mbtree=1 / bitrate=11500 / ratetol=1.0 / qcomp=0.60 / qpmin=0 / qpmax=69 / qpstep=4 / cplxblur=20.0 / qblur=0.5 / vbv_maxrate=31250 / vbv_bufsize=31250 / nal_hrd=none / filler=0 / ip_ratio=1.40 / aq=1:1.00 Language : English Default : Yes Forced : No Audio ID : 2 Format : DTS Format/Info : Digital Theater Systems Codec ID : A_DTS Duration : 1 h 23 min Bit rate mode : Constant Bit rate : 1 509 kb/s Channel(s) : 6 channels Channel layout : C L R Ls Rs LFE Sampling rate : 48.0 kHz Frame rate : 93.750 FPS (512 SPF) Bit depth : 16 bits Compression mode : Lossy Stream size : 899 MiB (12%) Language : English Default : Yes Forced : No Text ID : 3 Format : UTF-8 Codec ID : S_TEXT/UTF8 Codec ID/Info : UTF-8 Plain Text Duration : 1 h 22 min Bit rate : 54 b/s Count of elements : 1014 Stream size : 33.0 KiB (0%) Language : English Default : Yes Forced : No
Pinocchio.2019.ITALIAN.1080p.BluRay.x264.DD5.1-BdC
Listing: Pinocchio
Submitted by: Mr. Meeseeks
Submitted on: May 29, 2020
Language : Italian
The.Vast.of.Night.2019.1080p.AMZN.WEBRip.DDP5.1.x264-NTG
Submitted by: Mr. Meeseeks
Submitted on: May 29, 2020
Video ID : 1 Format : AVC Format/Info : Advanced Video Codec Format profile : High@L4 Format settings : CABAC / 4 Ref Frames Format settings, CABAC : Yes Format settings, Reference frames : 4 frames Codec ID : V_MPEG4/ISO/AVC Duration : 1 h 30 min Bit rate mode : Constant Bit rate : 9 389 kb/s Nominal bit rate : 10 000 kb/s Width : 1 920 pixels Height : 800 pixels Display aspect ratio : 2.40:1 Frame rate mode : Constant Frame rate : 23.976 (24000/1001) FPS Color space : YUV Chroma subsampling : 4:2:0 Bit depth : 8 bits Scan type : Progressive Bits/(Pixel*Frame) : 0.255 Stream size : 5.97 GiB (94%) Default : Yes Forced : No Color range : Limited Color primaries : BT.709 Transfer characteristics : BT.709 Matrix coefficients : BT.709 Audio ID : 2 Format : E-AC-3 Format/Info : Enhanced AC-3 Commercial name : Dolby Digital Plus Codec ID : A_EAC3 Duration : 1 h 30 min Bit rate mode : Constant Bit rate : 640 kb/s Channel(s) : 6 channels Channel layout : L R C LFE Ls Rs Sampling rate : 48.0 kHz Frame rate : 31.250 FPS (1536 SPF) Compression mode : Lossy Stream size : 416 MiB (6%) Language : English Service kind : Complete Main Default : Yes Forced : No
The.High.Note.2020.720p.WEBRip.800MB.x264-GalaxyRG
Listing: The High Note
Submitted by: Mr. Meeseeks
Submitted on: May 29, 2020
Container = Matroska (mkv) Duration = 01:53:21.973 Filesize = 797 MiB Overall bitrate = 983 kb/s Video Codec info = AVC High@L3.1 | V_MPEG4/ISO/AVC Resolution = 1280x528 Display AR = 2.407 | 2.40:1 Bitrate = Framerate = VFR Color space = YUV Chroma subsampling = 4:2:0 Encoder = x264 - core 157 Audio Codec info = AAC | A_AAC-2 Channels = 2 Bitrate = Samplerate = 48.0 kHz Language = English
Debt.Collectors.2020.720p.WEBRip.800MB.x264-GalaxyRG
Listing: Debt Collectors
Submitted by: Mr. Meeseeks
Submitted on: May 29, 2020
Container = Matroska (mkv) Duration = 01:37:24.853 Filesize = 797 MiB Overall bitrate = 1 144 kb/s Video Codec info = AVC High@L3.1 | V_MPEG4/ISO/AVC Resolution = 1280x720 Display AR = 1.778 | 16:9 Bitrate = 5 656 kb/s Framerate = VFR 23.976 Color space = YUV Chroma subsampling = 4:2:0 Encoder = x264 - core 157 Audio Codec info = AAC | A_AAC-2 Channels = 2 Bitrate = 384 kb/s Samplerate = 48.0 kHz Language = English
The.Control.2020.720p.WEBRip.800MB.x264-GalaxyRG
Listing: The Control
Submitted by: Mr. Meeseeks
Submitted on: May 26, 2020
Container = Matroska (mkv) Duration = 01:34:28.351 Filesize = 797 MiB Overall bitrate = 1 179 kb/s Video Codec info = AVC High@L3.1 | V_MPEG4/ISO/AVC Resolution = 1280x576 Display AR = 2.254 | 2.25:1 Bitrate = 4 549 kb/s Framerate = VFR 23.976 Color space = YUV Chroma subsampling = 4:2:0 Encoder = x264 - core 157 Audio Codec info = AAC | A_AAC-2 Channels = 2 Bitrate = 384 kb/s Samplerate = 48.0 kHz Language = English
Weathering with You.2020.1080p.Bluray.DTS-HD.MA.5.1.X264-EVO
Submitted by: Mavoy
Submitted on: May 26, 2020
BluRay out! Container = Matroska (mkv) Duration = 01:52:13.852 Filesize = 11 GiB Overall bitrate = 14.4 Mb/s Codec info = AVC High@L4.1 | V_MPEG4/ISO/AVC Resolution = 1920x1080 AUDiO = AC-3 | A_AC3 Channels = 6 Language = Japanese
Capone.2020.1080p.BluRay.x264.DTS-HD.MA.5.1-FGT
Listing: Capone
Submitted by: Mr. Meeseeks
Submitted on: May 24, 2020
Stream size : 1.28 GiB (13%) Title : Capone.2020.1080p.BluRay.x264.DTS-HD.MA.5.1-FGT Language : English
Once.Were.Brothers.Robbie.Robertson.and.the.Band.2019.1080p.BluRay.x264-YOL0W
Submitted by: Mr. Meeseeks
Submitted on: May 24, 2020
Date........: Sun 05/24/2020 Source......: BluRay Runtime.....: 01:41:35.256 Video.......: x264 @ CRF 18.2 Resolution..: 1920x1080 16:9 Bitrate.....: 12307 Kb/s FPS.........: 23.976 Source......: 23984 Kb/s Audio.......: English DTS-HD MA 5.1
Last.and.First.Men.2020.1080p.BluRay.x264.DTS-FGT
Submitted by: Mavoy
Submitted on: May 23, 2020
Finally out! Container = Matroska (mkv) Duration = 01:10:45.675 Filesize = 6 GiB Overall bitrate = 13.0 Mb/s Codec info = AVC High@L4.1 | V_MPEG4/ISO/AVC Resolution = 1756x1068 Display AR = 1.644 | 16:10 Bitrate = 11.5 Mb/s Audio Channels = 6
We.Summon.The.Darkness.2019.DVDRip.x264-RedBlade
Submitted by: Mr. Meeseeks
Submitted on: May 23, 2020
Video: x264 @ 696 kbps 720x302 Audio: AAC @ 128 kbps Language: English Subtitles: None
Blood.Machines.2019.1080p.AMZN.WEBRip.DDP2.0.x264-NTG
Listing: Blood Machines
Submitted by: Mr. Meeseeks
Submitted on: May 22, 2020
Video ID : 1 Format : AVC Format/Info : Advanced Video Codec Format profile : High@L4 Format settings : CABAC / 4 Ref Frames Format settings, CABAC : Yes Format settings, Reference frames : 4 frames Codec ID : V_MPEG4/ISO/AVC Duration : 21 min 9 s Bit rate mode : Constant Bit rate : 10 000 kb/s Width : 1 920 pixels Height : 800 pixels Display aspect ratio : 2.40:1 Frame rate mode : Constant Frame rate : 25.000 FPS Color space : YUV Chroma subsampling : 4:2:0 Bit depth : 8 bits Scan type : Progressive Bits/(Pixel*Frame) : 0.260 Stream size : 1.44 GiB (98%) Default : Yes Forced : No Color range : Limited Color primaries : BT.709 Transfer characteristics : BT.709 Matrix coefficients : BT.709 Audio ID : 2 Format : E-AC-3 Format/Info : Enhanced AC-3 Commercial name : Dolby Digital Plus Codec ID : A_EAC3 Duration : 21 min 9 s Bit rate mode : Constant Bit rate : 224 kb/s Channel(s) : 2 channels Channel layout : L R Sampling rate : 48.0 kHz Frame rate : 31.250 FPS (1536 SPF) Compression mode : Lossy Stream size : 33.9 MiB (2%) Language : English Service kind : Complete Main Default : Yes Forced : No
The.Big.Bad.Fox.And.Other.Tales.2017.1080p.BluRay.x264-HDEX
Submitted by: Mr. Meeseeks
Submitted on: May 22, 2020
Video : 1920x1080 8340 Audio : English 5.1 DTS 1509 : French 5.1 DTS 1509 Subtitles : English French Spanish
Military.Wives.2019.1080p.WEB-DL.DD5.1.H264-FGT
Listing: Military Wives
Submitted by: Mr. Meeseeks
Submitted on: May 22, 2020
Video ID : 1 Format : AVC Format/Info : Advanced Video Codec Format profile : High@L4 Format settings : CABAC / 5 Ref Frames Format settings, CABAC : Yes Format settings, Reference frames : 5 frames Codec ID : V_MPEG4/ISO/AVC Duration : 1 h 52 min Bit rate : 4 571 kb/s Width : 1 912 pixels Height : 792 pixels Display aspect ratio : 2.40:1 Frame rate mode : Constant Frame rate : 23.976 (24000/1001) FPS Color space : YUV Chroma subsampling : 4:2:0 Bit depth : 8 bits Scan type : Progressive Bits/(Pixel*Frame) : 0.126 Stream size : 3.60 GiB (92%) Title : Military.Wives.2019.1080p.WEB-DL.DD5.1.H264-FGT Language : English Default : Yes Forced : No Color range : Limited Color primaries : BT.709 Transfer characteristics : BT.709 Matrix coefficients : BT.709 Audio ID : 2 Format : AC-3 Format/Info : Audio Coding 3 Commercial name : Dolby Digital Codec ID : A_AC3 Duration : 1 h 52 min Bit rate mode : Constant Bit rate : 384 kb/s Channel(s) : 6 channels Channel layout : L R C LFE Ls Rs Sampling rate : 48.0 kHz Frame rate : 31.250 FPS (1536 SPF) Compression mode : Lossy Delay relative to video : -42 ms Stream size : 310 MiB (8%) Title : Military.Wives.2019.1080p.WEB-DL.DD5.1.H264-FGT Language : English Service kind : Complete Main Default : Yes Forced : No Text ID : 3 Format : UTF-8 Codec ID : S_TEXT/UTF8 Codec ID/Info : UTF-8 Plain Text Duration : 1 h 46 min Bit rate : 69 b/s Count of elements : 1655 Stream size : 53.6 KiB (0%) Language : English Default : Yes Forced : No
The.Night.Clerk.2020.1080p.BluRay.AVC.DTS-HD.MA.5.1-OCULAR
Listing: The Night Clerk
Submitted by: Mr. Meeseeks
Submitted on: May 22, 2020
Disc Title: The.Night.Clerk.2020.COMPLETE.BLURAY-OCULAR Disc Size: 23,245,109,464 bytes Protection: AACS Extras: 50Hz Content BDInfo: 0.7.5.9 (compatible layout created by DVDFab 11.0.8.8) PLAYLIST REPORT: Name: 00000.MPLS Length: 1:30:12.407 (h:m:s.ms) Size: 23,117,924,352 bytes Total Bitrate: 34.17 Mbps VIDEO: Codec Bitrate Description ----- ------- ----------- MPEG-4 AVC Video 28982 kbps 1080p / 23.976 fps / 16:9 / High Profile 4.1 AUDIO: Codec Language Bitrate Description ----- -------- ------- ----------- LPCM Audio English 1536 kbps 2.0 / 48 kHz / 1536 kbps / 16-bit DTS-HD Master Audio English 1678 kbps 5.1 / 48 kHz / 1678 kbps / 16-bit (DTS Core: 5.1 / 48 kHz / 1509 kbps / 16-bit) SUBTITLES: Codec Language Bitrate Description ----- -------- ------- ----------- Presentation Graphics English 25.146 kbps
The.Lovebirds.2020.1080p.NF.WEBRip.DDP5.1.x264-NTG
Listing: The Lovebirds
Submitted by: Mr. Meeseeks
Submitted on: May 22, 2020
Video ID : 1 Format : AVC Format/Info : Advanced Video Codec Format profile : High@L4 Format settings : CABAC / 4 Ref Frames Format settings, CABAC : Yes Format settings, Reference frames : 4 frames Codec ID : V_MPEG4/ISO/AVC Duration : 1 h 27 min Bit rate mode : Variable Bit rate : 7 126 kb/s Maximum bit rate : 20.0 Mb/s Width : 1 920 pixels Height : 1 080 pixels Display aspect ratio : 16:9 Frame rate mode : Constant Frame rate : 23.976 (24000/1001) FPS Color space : YUV Chroma subsampling : 4:2:0 Bit depth : 8 bits Scan type : Progressive Bits/(Pixel*Frame) : 0.143 Stream size : 4.34 GiB (92%) Writing library : x264 core 148 r2717 0d2410d Encoding settings : cabac=1 / ref=4 / deblock=1:0:0 / analyse=0x3:0x111 / me=umh / subme=10 / psy=1 / psy_rd=1.00:0.00 / mixed_ref=1 / me_range=120 / chroma_me=1 / trellis=2 / 8x8dct=1 / cqm=0 / deadzone=21,11 / fast_pskip=1 / chroma_qp_offset=-2 / threads=6 / lookahead_threads=1 / sliced_threads=0 / nr=0 / decimate=1 / interlaced=0 / bluray_compat=0 / stitchable=1 / constrained_intra=0 / bframes=16 / b_pyramid=2 / b_adapt=2 / b_bias=0 / direct=3 / weightb=1 / open_gop=0 / weightp=2 / keyint=240 / keyint_min=121 / scenecut=0 / intra_refresh=0 / rc_lookahead=240 / rc=crf / mbtree=1 / crf=16.0 / qcomp=0.50 / qpmin=6 / qpmax=51 / qpstep=4 / vbv_maxrate=20000 / vbv_bufsize=25000 / crf_max=0.0 / nal_hrd=vbr / filler=0 / ip_ratio=1.40 / aq=1:0.80 Default : Yes Forced : No Audio ID : 2 Format : E-AC-3 Format/Info : Enhanced AC-3 Commercial name : Dolby Digital Plus Codec ID : A_EAC3 Duration : 1 h 27 min Bit rate mode : Constant Bit rate : 640 kb/s Channel(s) : 6 channels Channel layout : L R C LFE Ls Rs Sampling rate : 48.0 kHz Frame rate : 31.250 FPS (1536 SPF) Compression mode : Lossy Stream size : 399 MiB (8%) Title : English Language : English Service kind : Complete Main Default : Yes Forced : No
The.Painter.and.the.Thief.2020.1080p.AMZN.WEBRip.DDP5.1.x264-NTG
Submitted by: Mr. Meeseeks
Submitted on: May 22, 2020
Container = Matroska (mkv) Duration = 01:46:47.168 Filesize = 7 GiB Overall bitrate = 9 670 kb/s ViDEO Codec info = AVC High@L4 | V_MPEG4/ISO/AVC Resolution = 1920x1080 Display AR = 1.778 | 16:9 Bitrate = 9 028 kb/s Framerate = CFR 23.976 Color space = YUV Chroma subsampling = 4:2:0 Encoder = AUDiO Codec info = E-AC-3 | A_EAC3 Channels = 6 Bitrate = CBR 640 kb/s Samplerate = 48.0 kHz Language = English
Acacia.Motel.2020.720p.WEBRip.800MB.x264-GalaxyRG
Listing: Motel Acacia
Submitted by: Mr. Meeseeks
Submitted on: May 22, 2020
Container = Matroska (mkv) Duration = 01:32:03.029 Filesize = 797 MiB Overall bitrate = 1 210 kb/s Video Codec info = AVC High@L3.1 | V_MPEG4/ISO/AVC Resolution = 1280x544 Display AR = 2.378 | 2.40:1 Bitrate = 4 545 kb/s Framerate = VFR 24.000 Color space = YUV Chroma subsampling = 4:2:0 Encoder = x264 - core 148 r2748 97eaef2 Audio Codec info = AAC | A_AAC-2 Channels = 2 Bitrate = 384 kb/s Samplerate = 48.0 kHz Language = English
3273 results - showing 61 - 80  
« 1 2 3 4 5 6 ... »