Latest download & stream reports

2003 results - showing 101 - 120  
« 1 ... 3 4 5 6 7 8 ... »  
 
The.Silence.2019.1080p.NF.WEB-DL.DD5.1.H264-EVO
Listing: The Silence
Submitted by: Ивана
Submitted on: April 10, 2019
Duration: 1h 30min Resolution: 1920x1080 Language: English
Savage.Youth.2018.1080p.WEB-DL.H264.AC3-EVO
Listing: Savage Youth
Submitted by: Ивана
Submitted on: April 10, 2019
Duration: 1h 39min Resolution: 1920x1080 Language: English
Acres.And.Acres.2019.1080p.WEB-DL.H264.AC3-EVO
Listing: Acres & Acres
Submitted by: Ивана
Submitted on: April 09, 2019
Duration: 1h 41min Resolution: 1920x804 Language: English
Black.Site.2018.HDRip.AC3.x264-CMRG
Listing: Black Site
Submitted by: Mr. Meeseeks
Submitted on: April 09, 2019
Container = Matroska (mkv) Duration = 01:27:34.144 Filesize = 1 GiB Overall bitrate = 2 107 kb/s ViDEO Codec info = AVC [email protected] | V_MPEG4/ISO/AVC Resolution = 720x304 Display AR = 2.368 | 2.35:1 Bitrate = 1 801 kb/s Framerate = CFR 23.976 Color space = YUV Chroma subsampling = 4:2:0 Encoder = x264 - core 152 r2851 ba24899 AUDiO Codec info = AC-3 | A_AC3 Channels = 6 Bitrate = CBR 384 kb/s Samplerate = 48.0 kHz Language = English Included subtitles English, English
How.to.Train.Your.Dragon.The.Hidden.World.2019.1080p.BluRay.x264.DTS-HD.MA.7.1-FGT
Submitted by: Mr. Meeseeks
Submitted on: April 08, 2019
Video ID : 1 Format : AVC Format/Info : Advanced Video Codec Format profile : [email protected] Format settings : CABAC / 4 Ref Frames Format settings, CABAC : Yes Format settings, ReFrames : 4 frames Codec ID : V_MPEG4/ISO/AVC Duration : 1 h 44 min Bit rate : 11.5 Mb/s Width : 1 920 pixels Height : 816 pixels Display aspect ratio : 2.35:1 Frame rate mode : Constant Frame rate : 23.976 (24000/1001) FPS Color space : YUV Chroma subsampling : 4:2:0 Bit depth : 8 bits Scan type : Progressive Bits/(Pixel*Frame) : 0.306 Stream size : 8.36 GiB (74%) Title : How.to.Train.Your.Dragon.The.Hidden.World.2019.1080p.BluRay.x264.DTS-HD.MA.7.1-FGT Writing library : x264 core 148 r2795M aaa9aa8 Encoding settings : cabac=1 / ref=4 / deblock=1:1:1 / analyse=0x3:0x113 / me=umh / subme=8 / psy=1 / psy_rd=0.50:0.00 / mixed_ref=1 / me_range=32 / chroma_me=1 / trellis=2 / 8x8dct=1 / cqm=0 / deadzone=21,11 / fast_pskip=1 / chroma_qp_offset=-2 / threads=25 / lookahead_threads=3 / sliced_threads=0 / nr=0 / decimate=1 / interlaced=0 / bluray_compat=0 / constrained_intra=0 / bframes=3 / b_pyramid=2 / b_adapt=1 / b_bias=0 / direct=3 / weightb=1 / open_gop=0 / weightp=2 / keyint=240 / keyint_min=24 / scenecut=40 / intra_refresh=0 / rc_lookahead=50 / rc=2pass / mbtree=1 / bitrate=11500 / ratetol=1.0 / qcomp=0.60 / qpmin=0 / qpmax=69 / qpstep=4 / cplxblur=20.0 / qblur=0.5 / vbv_maxrate=31250 / vbv_bufsize=31250 / nal_hrd=none / filler=0 / ip_ratio=1.40 / aq=3:0.60 Language : English Default : Yes Forced : No Audio ID : 2 Format : DTS XLL Format/Info : Digital Theater Systems Commercial name : DTS-HD Master Audio Codec ID : A_DTS Duration : 1 h 44 min Bit rate mode : Variable Bit rate : 4 041 kb/s Channel(s) : 8 channels Channel layout : C L R LFE Lb Rb Lss Rss Sampling rate : 48.0 kHz Frame rate : 93.750 FPS (512 SPF) Bit depth : 24 bits Compression mode : Lossless Stream size : 2.94 GiB (26%) Title : How.to.Train.Your.Dragon.The.Hidden.World.2019.1080p.BluRay.x264.DTS-HD.MA.7.1-FGT Language : English Default : Yes Forced : No Text #1 ID : 3 Format : UTF-8 Codec ID : S_TEXT/UTF8 Codec ID/Info : UTF-8 Plain Text Duration : 1 h 32 min Bit rate : 47 b/s Count of elements : 1100 Stream size : 32.2 KiB (0%) Title : English-SRT Language : English Default : Yes Forced : No Text #2 ID : 4 Format : UTF-8 Codec ID : S_TEXT/UTF8 Codec ID/Info : UTF-8 Plain Text Duration : 1 h 32 min Bit rate : 59 b/s Count of elements : 1542 Stream size : 40.2 KiB (0%) Title : English-SDH-SRT Language : English Default : No Forced : No Text #3 ID : 5 Format : PGS Muxing mode : zlib Codec ID : S_HDMV/PGS Codec ID/Info : Picture based subtitle format used on BDs/HD-DVDs Duration : 1 h 32 min Bit rate : 43.0 kb/s Count of elements : 3091 Stream size : 28.6 MiB (0%) Title : English-PGS Language : English Default : No Forced : No
Shazam.2019.HDTS.900MB.1xbet.x264-BONSAI[TGx]
Listing: Shazam
Submitted by: Costa
Submitted on: April 08, 2019
Contains usual 1XBET Ads MEDIAINFO: Container = Matroska (mkv) Duration = 02:00:09.269 Filesize = 897 MiB Overall bitrate = 1 044 kb/s Video Codec info = AVC [email protected] | V_MPEG4/ISO/AVC Resolution = 1280x544 Display AR = 2.388 | 2.40:1 Bitrate = Framerate = VFR Color space = YUV Chroma subsampling = 4:2:0 Encoder = x264 - core 148 r2748 97eaef2 Audio Codec info = AAC LC | A_AAC Channels = 2 Bitrate = Samplerate = 48.0 kHz Language = English
The.Kid.Who.Would.Be.King.2019.720p.BluRay.x264.DTS-HDC
Submitted by: Mr. Meeseeks
Submitted on: April 07, 2019
NFO EMPTY
Native.Son.2019.HDRip.XviD.AC3-EVO
Listing: Native Son
Submitted by: Mr. Meeseeks
Submitted on: April 07, 2019
ViDEO: 1500 Kbps RESOLUTiON: 720x304 RUNTiME: 1h 44m 43s SUBTiTLES: No. AUDiO: 384 Kbps AC3 5.1 LANGUAGE: ENGLiSH
The.Spy.Who.Fell.to.Earth.2019.1080p.NF.WEBRip.DDP5.1.x264-NTG
Submitted by: Mr. Meeseeks
Submitted on: April 06, 2019
.
The.Wind.2018.1080p.AMZN.WEBRip.DDP5.1.x264-NTG
Listing: The Wind
Submitted by: Mr. Meeseeks
Submitted on: April 06, 2019
.
Lords.of.Chaos.2018.LiMiTED.1080p.BluRay.x264-GETiT
Listing: Lords of Chaos
Submitted by: Mr. Meeseeks
Submitted on: April 06, 2019
Rel.Date...: 06.04.2019 Reso.......: 1920 x 1040 Size ......: 8132 MB Biterate...: 2PASS @ 9195 kbps Audio......: ENG AC3 5.1 @ 384 kbps Subs.......: ENG
Pet Sematary 2019 720p HDCAM-1XBET
Listing: Pet Sematary
Submitted by: Mr. Meeseeks
Submitted on: April 05, 2019
Container = MPEG-4 (mp4) Duration = 01:36:09.120 Filesize = 2 GiB Overall bitrate = 3 231 kb/s ViDEO Codec info = AVC [email protected] | avc1 Resolution = 1280x536 Display AR = 2.388 | 2.40:1 Bitrate = 3 000 kb/s Framerate = CFR 29.970 Color space = YUV Chroma subsampling = 4:2:0 Encoder = x264 - core 148 AUDiO Codec info = AC-3 | ac-3 Channels = 2 Bitrate = CBR 224 kb/s Samplerate = 48.0 kHz Language = English
Shazam 2019 720p HDCAM-1XBET
Listing: Shazam
Submitted by: Costa
Submitted on: April 05, 2019
Language: English Video: MPEG4 Video (H264) 1280x536 29.97fps 2651kbps Audio: Dolby AC3 48000Hz stereo 224kbps
The.Head.Hunter.2019.720p.HDRip.800MB.x264-GalaxyRG
Listing: The Head Hunter
Submitted by: Mr. Meeseeks
Submitted on: April 05, 2019
Container = Matroska (mkv) Duration = 01:11:57.209 Filesize = 796 MiB Overall bitrate = 1 547 kb/s ViDEO Codec info = AVC [email protected] | V_MPEG4/ISO/AVC Resolution = 1280x720 Display AR = 1.778 | 16:9 Bitrate = Framerate = VFR Color space = YUV Chroma subsampling = 4:2:0 Encoder = x264 - core 148 r2748 97eaef2 AUDiO Codec info = AAC LC | A_AAC Channels = 2 Bitrate = Samplerate = 48.0 kHz Language = English
Berserk.2019.HDRip.AC3.x264-CMRG
Listing: Berserk
Submitted by: Mr. Meeseeks
Submitted on: April 05, 2019
Container = Matroska (mkv) Duration = 01:20:44.022 Filesize = 1 GiB Overall bitrate = 2 362 kb/s ViDEO Codec info = AVC [email protected] | V_MPEG4/ISO/AVC Resolution = 720x296 Display AR = 2.432 | 2.40:1 Bitrate = 1 986 kb/s Framerate = CFR 23.976 Color space = YUV Chroma subsampling = 4:2:0 Encoder = x264 - core 152 r2851 ba24899 AUDiO Codec info = AC-3 | A_AC3 Channels = 6 Bitrate = CBR 384 kb/s Samplerate = 48.0 kHz Language = English
The.Haunting.of.Sharon.Tate.2019.HDRip.AC3.x264-CMRG
Submitted by: Mr. Meeseeks
Submitted on: April 05, 2019
Container = Matroska (mkv) Duration = 01:30:33.216 Filesize = 1 GiB Overall bitrate = 2 087 kb/s ViDEO Codec info = AVC [email protected] | V_MPEG4/ISO/AVC Resolution = 720x304 Display AR = 2.368 | 2.35:1 Bitrate = 1 729 kb/s Framerate = CFR 23.976 Color space = YUV Chroma subsampling = 4:2:0 Encoder = x264 - core 152 r2851 ba24899 AUDiO Codec info = AC-3 | A_AC3 Channels = 6 Bitrate = CBR 384 kb/s Samplerate = 48.0 kHz Language = English
Unicorn.Store.2017.1080p.NF.WEBRip.DDP5.1.x264
Listing: Unicorn Store
Submitted by: Mr. Meeseeks
Submitted on: April 05, 2019
.
on.the.basis.of.sex.2018.BRRip.AC3.x264-CMRG
Submitted by: Mavoy
Submitted on: April 05, 2019
BluRay rip
Glass.2019.1080p.BluRay.x264.DTS-HD.MA.7.1-MT
Listing: Glass
Submitted by: Mr. Meeseeks
Submitted on: April 04, 2019
.
Prospect.2018.1080p.BluRay.x264-VETO
Listing: Prospect
Submitted by: Ивана
Submitted on: April 04, 2019
Duration: 1h 39min Resolution: 1920x1016 Language: English
2003 results - showing 101 - 120  
« 1 ... 3 4 5 6 7 8 ... »