Latest download & stream reports

The reports below include movies found on pirate streams, torrent sites or retail digital streaming services such as iTunes, Netflix and Disney+.
 
4099 results - showing 16 - 20  
« 1 2 3 4 5 6 ... »  
 
The.Power.of.the.Dog.2021.1080p.NF.WEBRip.DDP5.1.Atmos.x264-TEPES
Submitted by: Slen
Submitted on: December 01, 2021
Filesize = 6 GiB Overall bitrate = 6 479 kb/s Video Codec info = AVC Main@L4 | V_MPEG4/ISO/AVC Resolution = 1920x1080 Display AR = 1.778 | 16:9 Bitrate = 5 800 kb/s Framerate = CFR 24.000 Color space = YUV Chroma subsampling = 4:2:0 Encoder = x264 - core 148 r2727 7d026e8 Audio Codec info = E-AC-3 | A_EAC3 Channels = 6 Bitrate = CBR 768 kb/s Samplerate = 48.0 kHz Language = English Included subtitles Arabic, Chinese, Chinese, Czech, Danish, Dutch, English, Finnish, French, German, Greek, Hebrew, Croatian, Hungarian, Indonesian, Italian, Japanese, Korean, Malay, Norwegian, Bokmal, Polish, Portuguese, Portuguese, Romanian, Russian, Spanish, Spanish, Swedish, Thai, Turkish
Quo Vadis Aida 2020 1080p WEB-DL x264 AC3 HORiZON ArtSubs
Listing: Quo vadis, Aida?
Submitted by: Mavoy
Submitted on: December 01, 2021
actually, this film was released quite a long time ago...
The.Summit.of.the.Gods.2021.FRENCH.720p.NF.WEBRip.DDP5.1.Atmos.x264-TEPES
Submitted by: Mr. Meeseeks
Submitted on: November 30, 2021
Video ID : 1 Format : AVC Format/Info : Advanced Video Codec Format profile : Main@L3.1 Format settings : CABAC / 3 Ref Frames Format settings, CABAC : Yes Format settings, Reference frames : 3 frames Codec ID : V_MPEG4/ISO/AVC Duration : 1 h 35 min Bit rate mode : Variable Bit rate : 1 355 kb/s Nominal bit rate : 1 562 kb/s Maximum bit rate : 2 430 kb/s Width : 1 280 pixels Height : 720 pixels Display aspect ratio : 16:9 Frame rate mode : Constant Frame rate : 24.000 FPS Color space : YUV Chroma subsampling : 4:2:0 Bit depth : 8 bits Scan type : Progressive Bits/(Pixel*Frame) : 0.061 Stream size : 930 MiB (64%) Writing library : x264 core 148 r2727 7d026e8 Encoding settings : cabac=1 / ref=3 / deblock=1:0:0 / analyse=0x1:0x111 / me=umh / subme=10 / psy=1 / psy_rd=1.00:0.00 / mixed_ref=1 / me_range=24 / chroma_me=1 / trellis=2 / 8x8dct=0 / cqm=0 / deadzone=21,11 / fast_pskip=1 / chroma_qp_offset=-2 / threads=8 / lookahead_threads=1 / sliced_threads=0 / nr=0 / decimate=1 / interlaced=0 / bluray_compat=0 / stitchable=1 / constrained_intra=0 / bframes=2 / b_pyramid=0 / b_adapt=2 / b_bias=0 / direct=3 / weightb=1 / open_gop=0 / weightp=2 / keyint=250 / keyint_min=24 / scenecut=0 / intra_refresh=0 / rc_lookahead=48 / rc=2pass / mbtree=1 / bitrate=1562 / ratetol=1.0 / qcomp=0.50 / qpmin=6 / qpmax=51 / qpstep=4 / cplxblur=20.0 / qblur=0.5 / vbv_maxrate=2430 / vbv_bufsize=3240 / nal_hrd=vbr / filler=0 / ip_ratio=1.40 / aq=1:1.00 Default : Yes Forced : No Audio ID : 2 Format : E-AC-3 JOC Format/Info : Enhanced AC-3 with Joint Object Coding Commercial name : Dolby Digital Plus with Dolby Atmos Codec ID : A_EAC3 Duration : 1 h 35 min Bit rate mode : Constant Bit rate : 768 kb/s Channel(s) : 6 channels Channel layout : L R C LFE Ls Rs Sampling rate : 48.0 kHz Frame rate : 31.250 FPS (1536 SPF) Compression mode : Lossy Stream size : 527 MiB (36%) Language : French Service kind : Complete Main Default : Yes Forced : No Complexity index : 16 Number of dynamic objects : 15 Bed channel count : 1 channel Bed channel configuration : LFE
BLONDE.Purple.2021.1080p.WEBRip.DD5.1.x264-NOGRP
Listing: Blonde. Purple
Submitted by: Mr. Meeseeks
Submitted on: November 30, 2021
Video ID : 1 Format : AVC Format/Info : Advanced Video Codec Format profile : High@L4 Format settings : CABAC / 4 Ref Frames Format settings, CABAC : Yes Format settings, Reference frames : 4 frames Codec ID : V_MPEG4/ISO/AVC Duration : 2 h 9 min Bit rate : 6 702 kb/s Width : 1 920 pixels Height : 1 080 pixels Display aspect ratio : 16:9 Frame rate mode : Constant Frame rate : 23.976 (24000/1001) FPS Color space : YUV Chroma subsampling : 4:2:0 Bit depth : 8 bits Scan type : Progressive Bits/(Pixel*Frame) : 0.135 Stream size : 6.08 GiB (95%) Language : English Default : Yes Forced : No Color range : Limited Color primaries : BT.709 Transfer characteristics : BT.709 Matrix coefficients : BT.709 Audio ID : 2 Format : AC-3 Format/Info : Audio Coding 3 Commercial name : Dolby Digital Codec ID : A_AC3 Duration : 2 h 9 min Bit rate mode : Constant Bit rate : 384 kb/s Channel(s) : 6 channels Channel layout : L R C LFE Ls Rs Sampling rate : 48.0 kHz Frame rate : 31.250 FPS (1536 SPF) Compression mode : Lossy Stream size : 356 MiB (5%) Title : English Language : English Service kind : Complete Main Default : Yes Forced : No Text ID : 3 Format : UTF-8 Codec ID : S_TEXT/UTF8 Codec ID/Info : UTF-8 Plain Text Duration : 2 h 5 min Bit rate : 69 b/s Count of elements : 2139 Stream size : 64.0 KiB (0%) Language : English Default : Yes Forced : No
House.of.Gucci.2021.720p.HDCAM-FuckAds[TGx]
Listing: House of Gucci
Submitted by: Costa
Submitted on: November 29, 2021
New Cam without Ads MEDIAINFO Container = MPEG-4 (mp4) Duration = 02:31:30.938 Filesize = 3 GiB Overall bitrate = 2 661 kb/s Video Codec info = AVC Main@L4 | avc1 Resolution = 1280x540 Display AR = 2.370 | 2.40:1 Bitrate = 2 500 kb/s Framerate = CFR 30.000 Color space = YUV Chroma subsampling = 4:2:0 Encoder = x264 - core 142 r2479 dd79a61 Audio Codec info = AAC | mp4a-40-2 Channels = 2 Bitrate = VBR 160 kb/s Samplerate = 44.1 kHz Language = English
4099 results - showing 16 - 20  
« 1 2 3 4 5 6 ... »