Latest download & stream reports

The reports below include movies found on pirate streams, torrent sites or retail digital streaming services such as iTunes, Netflix and Disney+.
 
4099 results - showing 11 - 15  
« 1 2 3 4 5 6 ... »  
 
Listening.to.Kenny.G.2021.1080p.WEB.H264-HYMN
Submitted by: Mr. Meeseeks
Submitted on: December 03, 2021
Video ID : 1 Format : AVC Format/Info : Advanced Video Codec Format profile : High@L4 Format settings : CABAC / 4 Ref Frames Format settings, CABAC : Yes Format settings, Reference frames : 4 frames Codec ID : V_MPEG4/ISO/AVC Duration : 1 h 36 min Bit rate mode : Variable Bit rate : 8 250 kb/s Maximum bit rate : 12.4 Mb/s Width : 1 920 pixels Height : 1 080 pixels Display aspect ratio : 16:9 Frame rate mode : Constant Frame rate : 23.976 (24000/1001) FPS Color space : YUV Chroma subsampling : 4:2:0 Bit depth : 8 bits Scan type : Progressive Bits/(Pixel*Frame) : 0.166 Stream size : 5.54 GiB (96%) Writing library : x264 core 157 r2965 861cec4 Encoding settings : cabac=1 / ref=4 / deblock=1:0:0 / analyse=0x3:0x113 / me=hex / subme=7 / psy=1 / psy_rd=1.00:0.00 / mixed_ref=1 / me_range=16 / chroma_me=1 / trellis=1 / 8x8dct=1 / cqm=0 / deadzone=21,11 / fast_pskip=1 / chroma_qp_offset=-2 / threads=34 / lookahead_threads=5 / sliced_threads=0 / nr=0 / decimate=1 / interlaced=0 / bluray_compat=0 / constrained_intra=0 / bframes=3 / b_pyramid=2 / b_adapt=1 / b_bias=0 / direct=1 / weightb=1 / open_gop=0 / weightp=2 / keyint=96 / keyint_min=96 / scenecut=40 / intra_refresh=0 / rc_lookahead=40 / rc=2pass / mbtree=1 / bitrate=8250 / ratetol=1.0 / qcomp=0.60 / qpmin=0 / qpmax=69 / qpstep=4 / cplxblur=20.0 / qblur=0.5 / vbv_maxrate=12375 / vbv_bufsize=6187 / nal_hrd=vbr / filler=0 / ip_ratio=1.40 / aq=1:1.00 Default : Yes Forced : No Color range : Limited Color primaries : BT.709 Transfer characteristics : BT.709 Matrix coefficients : BT.709 Audio ID : 2 Format : AC-3 Format/Info : Audio Coding 3 Commercial name : Dolby Digital Codec ID : A_AC3 Duration : 1 h 36 min Bit rate mode : Constant Bit rate : 384 kb/s Channel(s) : 6 channels Channel layout : L R C LFE Ls Rs Sampling rate : 48.0 kHz Frame rate : 31.250 FPS (1536 SPF) Compression mode : Lossy Stream size : 265 MiB (4%) Title : English Language : English Service kind : Complete Main Default : Yes Forced : No Text ID : 3 Format : UTF-8 Codec ID : S_TEXT/UTF8 Codec ID/Info : UTF-8 Plain Text Duration : 1 h 36 min Bit rate : 106 b/s Count of elements : 1892 Stream size : 75.0 KiB (0%) Title : English (SDH) Language : English Default : No Forced : No
Belfast.2021.2160p.AMZN.WEB-DL.DDP5.1.HDR.HEVC-CMRG
Listing: Belfast
Submitted by: Slen
Submitted on: December 02, 2021
Filesize = 10 GiB Overall bitrate = 15.2 Mb/s Video Codec info = HEVC Main 10@L5@Main | V_MPEGH/ISO/HEVC Resolution = 3840x2160 Display AR = 1.778 | 16:9 Bitrate = 14.6 Mb/s Framerate = CFR 23.976 Color space = YUV Chroma subsampling = 4:2:0 Encoder = Audio Codec info = E-AC-3 | A_EAC3 Channels = 6 Bitrate = CBR 640 kb/s Samplerate = 48.0 kHz Language = English Included subtitles English, English, French
Adrienne.2021.1080p.WEB.h264-OPUS
Listing: Adrienne
Submitted by: Mr. Meeseeks
Submitted on: December 02, 2021
Video ID : 1 Format : AVC Format/Info : Advanced Video Codec Format profile : High@L4 Format settings : CABAC / 4 Ref Frames Format settings, CABAC : Yes Format settings, Reference frames : 4 frames Codec ID : V_MPEG4/ISO/AVC Duration : 1 h 39 min Bit rate mode : Variable Bit rate : 8 250 kb/s Maximum bit rate : 12.4 Mb/s Width : 1 920 pixels Height : 1 080 pixels Display aspect ratio : 16:9 Frame rate mode : Constant Frame rate : 23.976 (24000/1001) FPS Color space : YUV Chroma subsampling : 4:2:0 Bit depth : 8 bits Scan type : Progressive Bits/(Pixel*Frame) : 0.166 Stream size : 5.73 GiB (96%) Writing library : x264 core 157 r2965 861cec4 Encoding settings : cabac=1 / ref=4 / deblock=1:0:0 / analyse=0x3:0x113 / me=hex / subme=7 / psy=1 / psy_rd=1.00:0.00 / mixed_ref=1 / me_range=16 / chroma_me=1 / trellis=1 / 8x8dct=1 / cqm=0 / deadzone=21,11 / fast_pskip=1 / chroma_qp_offset=-2 / threads=34 / lookahead_threads=5 / sliced_threads=0 / nr=0 / decimate=1 / interlaced=0 / bluray_compat=0 / constrained_intra=0 / bframes=3 / b_pyramid=2 / b_adapt=1 / b_bias=0 / direct=1 / weightb=1 / open_gop=0 / weightp=2 / keyint=96 / keyint_min=96 / scenecut=40 / intra_refresh=0 / rc_lookahead=40 / rc=2pass / mbtree=1 / bitrate=8250 / ratetol=1.0 / qcomp=0.60 / qpmin=0 / qpmax=69 / qpstep=4 / cplxblur=20.0 / qblur=0.5 / vbv_maxrate=12375 / vbv_bufsize=6187 / nal_hrd=vbr / filler=0 / ip_ratio=1.40 / aq=1:1.00 Default : Yes Forced : No Color range : Limited Color primaries : BT.709 Transfer characteristics : BT.709 Matrix coefficients : BT.709 Audio ID : 2 Format : AC-3 Format/Info : Audio Coding 3 Commercial name : Dolby Digital Codec ID : A_AC3 Duration : 1 h 39 min Bit rate mode : Constant Bit rate : 384 kb/s Channel(s) : 6 channels Channel layout : L R C LFE Ls Rs Sampling rate : 48.0 kHz Frame rate : 31.250 FPS (1536 SPF) Compression mode : Lossy Stream size : 274 MiB (4%) Title : English Language : English Service kind : Complete Main Default : Yes Forced : No Text #1 ID : 3 Format : UTF-8 Codec ID : S_TEXT/UTF8 Codec ID/Info : UTF-8 Plain Text Duration : 1 h 39 min Bit rate : 98 b/s Count of elements : 2054 Stream size : 72.0 KiB (0%) Title : English (SDH) Language : English Default : No Forced : No Text #2 ID : 4 Format : UTF-8 Codec ID : S_TEXT/UTF8 Codec ID/Info : UTF-8 Plain Text Duration : 1 h 37 min Bit rate : 91 b/s Count of elements : 1997 Stream size : 65.4 KiB (0%) Title : Spanish (Latin America) Language : Spanish Default : No Forced : No
The.Unforgivable.2021.720p.HDCAM-C1NEM4
Listing: The Unforgivable
Submitted by: Costa
Submitted on: December 01, 2021
Contains Ads
Rons.Gone.Wrong.2021.1080p.Bluray.DTS-HD.MA.7.1.X264-EVO
Listing: Ron's Gone Wrong
Submitted by: Slen
Submitted on: December 01, 2021
Filesize = 14 GiB Overall bitrate = 18.3 Mb/s Video Codec info = AVC High@L4.1 | V_MPEG4/ISO/AVC Resolution = 1920x804 Display AR = 2.388 | 2.40:1 Bitrate = Framerate = CFR 23.976 Color space = YUV Chroma subsampling = 4:2:0 Encoder = x264 - core 142 r2479 dd79a61 Audio Codec info = AC-3 | A_AC3 Channels = 6 Bitrate = CBR 640 kb/s Samplerate = 48.0 kHz Language = English
4099 results - showing 11 - 15  
« 1 2 3 4 5 6 ... »