Latest download & stream reports

The reports below include movies found on pirate streams, torrent sites or retail digital streaming services such as iTunes, Netflix and Disney+.
 
3450 results - showing 1 - 5  
« 1 2 3 4 5 6 ... »  
 
Teenage.Badass.2020.1080p.WEB-DL.DD5.1.H.264-EVO
Listing: Teenage Badass
Submitted by: Ivana 🌿
Submitted on: September 18, 2020
Duration: 1h 38min Resolution: 1920x1080 Language: English
Blackbird.2020.HDRip.XviD.AC3-EVO
Listing: Blackbird
Submitted by: Mr. Meeseeks
Submitted on: September 18, 2020
ViDEO: 1 575 kb/s RESOLUTiON: 720x300 RUNTiME: 1 h 37 min SUBTiTLES: No. AUDiO: 384 kb/s AC-3 6 channels LANGUAGE: ENGLiSH ENCODER: eSc
Lost.Girls.and.Love.Hotels.2020.1080p.WEBRip.DD5.1.x264-CM
Submitted by: Mr. Meeseeks
Submitted on: September 18, 2020
Video ID : 1 Format : AVC Format/Info : Advanced Video Codec Format profile : High@L4 Format settings : CABAC / 2 Ref Frames Format settings, CABAC : Yes Format settings, Reference frames : 2 frames Codec ID : V_MPEG4/ISO/AVC Duration : 1 h 37 min Bit rate : 6 036 kb/s Width : 1 920 pixels Height : 1 080 pixels Display aspect ratio : 16:9 Frame rate mode : Constant Frame rate : 23.976 (24000/1001) FPS Color space : YUV Chroma subsampling : 4:2:0 Bit depth : 8 bits Scan type : Progressive Bits/(Pixel*Frame) : 0.121 Stream size : 4.10 GiB (94%) Writing library : x264 core 155 r2901 7d0ff22 Language : English Default : Yes Forced : No Color range : Limited Color primaries : BT.709 Transfer characteristics : BT.709 Matrix coefficients : BT.709 Audio ID : 2 Format : AC-3 Format/Info : Audio Coding 3 Commercial name : Dolby Digital Codec ID : A_AC3 Duration : 1 h 37 min Bit rate mode : Constant Bit rate : 384 kb/s Channel(s) : 6 channels Channel layout : L R C LFE Ls Rs Sampling rate : 48.0 kHz Frame rate : 31.250 FPS (1536 SPF) Compression mode : Lossy Stream size : 267 MiB (6%) Language : English Service kind : Complete Main Default : Yes Forced : No
No.Escape.2020.1080p.WEB-DL.DD5.1.H264-FGT
Listing: No Escape
Submitted by: Mr. Meeseeks
Submitted on: September 18, 2020
Video ID : 1 Format : AVC Format/Info : Advanced Video Codec Format profile : High@L4 Format settings : CABAC / 5 Ref Frames Format settings, CABAC : Yes Format settings, Reference frames : 5 frames Codec ID : V_MPEG4/ISO/AVC Duration : 1 h 31 min Bit rate : 4 553 kb/s Width : 1 908 pixels Height : 792 pixels Display aspect ratio : 2.40:1 Frame rate mode : Constant Frame rate : 23.976 (24000/1001) FPS Color space : YUV Chroma subsampling : 4:2:0 Bit depth : 8 bits Scan type : Progressive Bits/(Pixel*Frame) : 0.126 Stream size : 2.92 GiB (92%) Title : No.Escape.2020.1080p.WEB-DL.DD5.1.H.264-FGT Language : English Default : Yes Forced : No Color range : Limited Color primaries : BT.709 Transfer characteristics : BT.709 Matrix coefficients : BT.709 Audio ID : 2 Format : AC-3 Format/Info : Audio Coding 3 Commercial name : Dolby Digital Codec ID : A_AC3 Duration : 1 h 31 min Bit rate mode : Constant Bit rate : 384 kb/s Channel(s) : 6 channels Channel layout : L R C LFE Ls Rs Sampling rate : 48.0 kHz Frame rate : 31.250 FPS (1536 SPF) Compression mode : Lossy Stream size : 252 MiB (8%) Title : No.Escape.2020.1080p.WEB-DL.DD5.1.H.264-FGT Language : English Service kind : Complete Main Default : Yes Forced : No Text ID : 3 Format : UTF-8 Codec ID : S_TEXT/UTF8 Codec ID/Info : UTF-8 Plain Text Duration : 1 h 26 min Bit rate : 56 b/s Count of elements : 1336 Stream size : 35.9 KiB (0%) Language : English Default : Yes Forced : No
Antebellum.2020.1080p.WEB-DL.H264.AC3-EVO
Listing: Antebellum
Submitted by: Mavoy
Submitted on: September 18, 2020
Container = Matroska (mkv) Duration = 01:45:59.520 Filesize = 5 GiB Overall bitrate = 7 198 kb/s Language = English
3450 results - showing 1 - 5  
« 1 2 3 4 5 6 ... »