Arctic

Arctic

Hot
Ivana ­čî┐Ivana ­čî┐   September 27, 2018  
Add to list
Arctic

Movie info

TITLE
Confirmed and upcoming movie titles only! Search before adding to avoid dupes.
Arctic
YEAR
The year the movie is set to be released.
2018
DIRECTOR
GENRE
Pick one or multiple movie genres.
CINEMA
First cinema release date in any country.
December 05, 2018
DESCRIPTION
Starring Mads Mikkelsen and Maria Thelma Smáradóttir.
WHERE YOU WATCH

Where you watch Email alert

The movie is online and reported below, Use the alert button to get notified when higher quality versions are available.

Reports

Is Arctic available online? Yes. Reports of pirated torrents and streams are available below.
When will Arctic be available on digital platforms like iTunes or Amazon? As of now, there's no release data announced. This includes iTunes, Amazon, Blu-Ray and DVD.

April 21, 2019
Arctic.2018.1080p.BluRay.x264.DTS-HDC
Video and audio quality: 5/5 | Source: BluRay

Submitted by: Mr. Meeseeks | Trust Rank level: Supreme Member
Format: Torrent | Site: RARBG
Video ID : 1 Format : AVC Format/Info : Advanced Video Codec Format profile : [email protected] Format settings : CABAC / 5 Ref Frames Format settings, CABAC : Yes Format settings, ReFrames : 5 frames Codec ID : V_MPEG4/ISO/AVC Duration : 1 h 38 min Bit rate : 12.5 Mb/s Width : 1 920 pixels Height : 804 pixels Display aspect ratio : 2.40:1 Frame rate mode : Constant Frame rate : 23.976 (24000/1001) FPS Color space : YUV Chroma subsampling : 4:2:0 Bit depth : 8 bits Scan type : Progressive Bits/(Pixel*Frame) : 0.338 Stream size : 8.57 GiB (89%) Writing library : x264 core 148 r2665kMod a01e339 Encoding settings : cabac=1 / ref=5 / deblock=1:-3:-3 / analyse=0x3:0x133 / me=umh / subme=11 / psy=1 / fade_compensate=0.00 / psy_rd=0.85:0.00 / mixed_ref=1 / me_range=48 / chroma_me=1 / trellis=2 / 8x8dct=1 / cqm=0 / deadzone=21,11 / fast_pskip=0 / chroma_qp_offset=-2 / threads=24 / lookahead_threads=4 / sliced_threads=0 / nr=0 / decimate=0 / interlaced=0 / bluray_compat=0 / constrained_intra=0 / fgo=0 / bframes=8 / b_pyramid=2 / b_adapt=2 / b_bias=0 / direct=3 / weightb=1 / open_gop=0 / weightp=2 / keyint=240 / keyint_min=24 / scenecut=40 / intra_refresh=0 / rc=2pass / mbtree=0 / bitrate=12500 / ratetol=1.0 / qcomp=0.70 / qpmin=0 / qpmax=69 / qpstep=4 / cplxblur=20.0 / qblur=0.5 / ip_ratio=1.20 / pb_ratio=1.20 / aq=3:0.80 Default : Yes Forced : No Audio ID : 2 Format : DTS Format/Info : Digital Theater Systems Codec ID : A_DTS Duration : 1 h 38 min Bit rate mode : Constant Bit rate : 1 509 kb/s Channel(s) : 6 channels Channel layout : C L R Ls Rs LFE Sampling rate : 48.0 kHz Frame rate : 93.750 FPS (512 SPF) Bit depth : 24 bits Compression mode : Lossy Stream size : 1.03 GiB (11%) Language : English Default : Yes Forced : No Text #1 ID : 3 Format : UTF-8 Codec ID : S_TEXT/UTF8 Codec ID/Info : UTF-8 Plain Text Duration : 1 h 25 min Bit rate : 2 b/s Count of elements : 127 Stream size : 1.87 KiB (0%) Language : English Default : Yes Forced : No Text #2 ID : 4 Format : UTF-8 Codec ID : S_TEXT/UTF8 Codec ID/Info : UTF-8 Plain Text Duration : 1 h 31 min Bit rate : 6 b/s Count of elements : 312 Stream size : 4.54 KiB (0%) Title : SDH Language : English Default : No Forced : No Menu 00:00:00.000 : en:00:00:00.000 00:05:09.893 : en:00:05:09.893 00:09:31.112 : en:00:09:31.112 00:14:27.033 : en:00:14:27.033 00:20:48.289 : en:00:20:48.289 00:23:42.254 : en:00:23:42.254 00:30:56.229 : en:00:30:56.229 00:37:04.639 : en:00:37:04.639 00:42:31.632 : en:00:42:31.632 00:48:00.127 : en:00:48:00.127 00:50:30.819 : en:00:50:30.819 00:56:30.095 : en:00:56:30.095 01:02:47.430 : en:01:02:47.430 01:06:19.684 : en:01:06:19.684 01:10:20.258 : en:01:10:20.258 01:13:42.501 : en:01:13:42.501 01:18:53.270 : en:01:18:53.270 01:22:54.928 : en:01:22:54.928 01:26:28.725 : en:01:26:28.725 01:32:47.645 : en:01:32:47.645
April 14, 2019
Arctic.2019.HC.HDRip.XviD.AC3-EVO
Video and audio quality: 4/5 | Source: Foreign web stream

Submitted by: Mavoy | Trust Rank level: Hero member
Format: Torrent | Site: 1337x
Hardcoded Korean subtitles. For impatient only - iTunes release date for this film is 30 April, so I'd wait!

Videos Add media

Arctic (2018) Cannes Clip "SOS" HD, Mads Mikkelsen
Arctic (2018) Cannes Clip "SOS" HD, Mads Mikkelse...