ZZ Top: That Little Ol' Band From Texas

ZZ Top: That Little Ol' Band From Texas

Hot
Mr. MeeseeksMr. Meeseeks   August 10, 2019  
Add to list
ZZ Top: That Little Ol' Band From Texas

Movie info

Title
Confirmed and upcoming movie titles only! Search before adding to avoid dupes.
ZZ Top: That Little Ol' Band From Texas
Year
The year the movie is set to be released.
2019
Director
Genre
Pick one or multiple movie genres.
Cinema release
First cinema release date in any country.
August 20, 2019
Description
Documentary film about the three-piece from Texas known as ZZ Top.
Where you watch

Where you watch Email alert

The movie is online and reported below, Use the alert button to get notified when higher quality versions are available.

Download and stream reports

Can I download or stream ZZ Top: That Little Ol' Band From Texas? Yes. Reports of pirated torrents and streams are available below.
When will ZZ Top: That Little Ol' Band From Texas be available on digital platforms like iTunes, Amazon or Apple+? As of now, there's no release date announced. This includes iTunes, Amazon, Blu-Ray and DVD.

March 01, 2020
ZZ.Top.That.Little.Ol.Band.From.Texas.2019.1080p.BluRay.x264-TREBLE
Video and audio quality: 5/5 | Source: BluRay

Submitted by: Mr. Meeseeks | Trust Rank level: Supreme Member
Format: Torrent | Site: RARBG
Video ID : 1 Format : AVC Format/Info : Advanced Video Codec Format profile : High@L4.1 Format settings : CABAC / 4 Ref Frames Format settings, CABAC : Yes Format settings, Reference frames : 4 frames Codec ID : V_MPEG4/ISO/AVC Duration : 1 h 30 min Bit rate : 8 895 kb/s Width : 1 920 pixels Height : 1 080 pixels Display aspect ratio : 16:9 Frame rate mode : Constant Frame rate : 23.976 (24000/1001) FPS Color space : YUV Chroma subsampling : 4:2:0 Bit depth : 8 bits Scan type : Progressive Bits/(Pixel*Frame) : 0.179 Stream size : 5.60 GiB (85%) Title : English Writing library : x264 core 159 r2991 1771b55 Encoding settings : cabac=1 / ref=4 / deblock=1:0:0 / analyse=0x3:0x113 / me=umh / subme=8 / psy=1 / psy_rd=1.00:0.00 / mixed_ref=1 / me_range=16 / chroma_me=1 / trellis=1 / 8x8dct=1 / cqm=0 / deadzone=21,11 / fast_pskip=1 / chroma_qp_offset=-2 / threads=24 / lookahead_threads=4 / sliced_threads=0 / nr=0 / decimate=1 / interlaced=0 / bluray_compat=0 / constrained_intra=0 / bframes=3 / b_pyramid=2 / b_adapt=1 / b_bias=0 / direct=3 / weightb=1 / open_gop=0 / weightp=2 / keyint=240 / keyint_min=24 / scenecut=40 / intra_refresh=0 / rc_lookahead=50 / rc=2pass / mbtree=1 / bitrate=8895 / ratetol=1.0 / qcomp=0.60 / qpmin=0 / qpmax=69 / qpstep=4 / cplxblur=20.0 / qblur=0.5 / ip_ratio=1.40 / aq=1:1.00 Language : English Default : Yes Forced : No Audio ID : 2 Format : DTS Format/Info : Digital Theater Systems Codec ID : A_DTS Duration : 1 h 30 min Bit rate mode : Constant Bit rate : 1 509 kb/s Channel(s) : 6 channels Channel layout : C L R Ls Rs LFE Sampling rate : 48.0 kHz Frame rate : 93.750 FPS (512 SPF) Bit depth : 24 bits Compression mode : Lossy Stream size : 973 MiB (15%) Title : English Language : English Default : Yes Forced : No

Videos Add media

ZZ Top - That Little Ol' Band From Texas (Official Trailer)
ZZ Top - That Little Ol' Band From Texas (Official...