Wrong Place

Wrong Place

Mr. MeeseeksMr. Meeseeks   July 14, 2022  
Add to list
Wrong Place

Movie info

Title
Confirmed and upcoming movie titles only! Search before adding to avoid dupes.
Wrong Place
Year
The year the movie is set to be released.
2022
Director
Mike Burns
Genre
Pick one or multiple movie genres.
Digital release
Official digital release date on services such as iTunes, Amazon, Netflix. It's the first known release date, without any country restriction. So if it's out on iTunes Russia first, this would be the digital release date.
July 15, 2022
Description
Starring Ashley Greene, Bruce Willis, Michael Sirow, Texas Battle, Stacey Danger, and Massi Furlan.
Where you watch

Where you watch Email alert

Yes, it is available and reported below. Use the alert button to get notified when higher quality versions are available.

Download and stream reports

Is there a Wrong Place torrent? Yes. Reports are available below.
When will Wrong Place be available on VOD? It's set for a July 15, 2022 release.

July 15, 2022
Wrong.Place.2022.1080p.WEBRip.DD5.1.x264-NOGRP
Video and audio quality: 5/5 | Source: Official web stream

Submitted by: Mr. Meeseeks | Trust Rank level: Supreme Member
Format: Torrent | Site: RARBG
Video ID : 1 Format : AVC Format/Info : Advanced Video Codec Format profile : High@L4 Format settings : CABAC / 4 Ref Frames Format settings, CABAC : Yes Format settings, Reference frames : 4 frames Codec ID : V_MPEG4/ISO/AVC Duration : 1 h 36 min Bit rate : 10.0 Mb/s Width : 1 916 pixels Height : 956 pixels Display aspect ratio : 2.004 Frame rate mode : Constant Frame rate : 23.976 (24000/1001) FPS Color space : YUV Chroma subsampling : 4:2:0 Bit depth : 8 bits Scan type : Progressive Bits/(Pixel*Frame) : 0.228 Stream size : 6.74 GiB (96%) Default : Yes Forced : No Color range : Limited Color primaries : BT.709 Transfer characteristics : BT.709 Matrix coefficients : BT.709 Audio ID : 2 Format : AC-3 Format/Info : Audio Coding 3 Commercial name : Dolby Digital Codec ID : A_AC3 Duration : 1 h 36 min Bit rate mode : Constant Bit rate : 384 kb/s Channel(s) : 6 channels Channel layout : L R C LFE Ls Rs Sampling rate : 48.0 kHz Frame rate : 31.250 FPS (1536 SPF) Compression mode : Lossy Stream size : 265 MiB (4%) Language : English Service kind : Complete Main Default : Yes Forced : No

Videos Add media

Wrong Place | Official Trailer (HD) | Vertical
Wrong Place | Official Trailer (HD) | Vertical