Working Man

Working Man

Mr. MeeseeksMr. Meeseeks   March 13, 2020  
Add to list
Working Man

Movie info

Title
Confirmed and upcoming movie titles only! Search before adding to avoid dupes.
Working Man
Year
The year the movie is set to be released.
2020
Director
Genre
Pick one or multiple movie genres.
Cinema release
First cinema release date in any country.
March 27, 2020
Description
Starring Peter Gerety, Talia Shire, Billy Brown, and Michael Brunlieb.
Where you watch

Where you watch Email alert

Yes, it is available and reported below. Use the alert button to get notified when higher quality versions are available.

Download and stream reports

Is there a Working Man torrent? Yes. Reports are available below.
When will Working Man be available on digital platforms like iTunes, Amazon or Apple+? As of now, there's no release date announced. This includes iTunes, Amazon, Blu-Ray and DVD.

May 05, 2020
Working.Man.2020.1080p.WEB-DL.DD5.1.H264-FGT
Video and audio quality: 5/5 | Source: Official web stream

Submitted by: Mr. Meeseeks | Trust Rank level: Supreme Member
Format: Torrent | Site: RARBG
Video ID : 1 Format : AVC Format/Info : Advanced Video Codec Format profile : High@L4 Format settings : CABAC / 4 Ref Frames Format settings, CABAC : Yes Format settings, Reference frames : 4 frames Codec ID : V_MPEG4/ISO/AVC Duration : 1 h 48 min Bit rate : 5 031 kb/s Width : 1 916 pixels Height : 1 032 pixels Display aspect ratio : 1.85:1 Frame rate mode : Constant Frame rate : 23.976 FPS Color space : YUV Chroma subsampling : 4:2:0 Bit depth : 8 bits Scan type : Progressive Bits/(Pixel*Frame) : 0.106 Stream size : 3.81 GiB (93%) Title : Working.Man.2020.1080p.WEB-DL.DD5.1.H264-FGT Language : English Default : Yes Forced : No Color range : Limited Color primaries : BT.709 Transfer characteristics : BT.709 Matrix coefficients : BT.709 Audio ID : 2 Format : AC-3 Format/Info : Audio Coding 3 Commercial name : Dolby Digital Codec ID : A_AC3 Duration : 1 h 48 min Bit rate mode : Constant Bit rate : 384 kb/s Channel(s) : 6 channels Channel layout : L R C LFE Ls Rs Sampling rate : 48.0 kHz Frame rate : 31.250 FPS (1536 SPF) Bit depth : 16 bits Compression mode : Lossy Stream size : 298 MiB (7%) Title : Working.Man.2020.1080p.WEB-DL.DD5.1.H264-FGT Language : English Service kind : Complete Main Default : Yes Forced : No Text ID : 3 Format : UTF-8 Codec ID : S_TEXT/UTF8 Codec ID/Info : UTF-8 Plain Text Duration : 1 h 42 min Bit rate : 41 b/s Count of elements : 1165 Stream size : 31.2 KiB (0%) Language : English Default : Yes Forced : No

Videos Add media

WORKING MAN (2020) Official Trailer
WORKING MAN (2020) Official Trailer