Winchester

Winchester

Mr. MeeseeksMr. Meeseeks   December 20, 2017  
News (0)
Add to list
Winchester

Movie info

TITLE
Confirmed and upcoming movie titles only! Search before adding to avoid dupes.
YEAR
The year the movie is set to be released.
2018
GENRE
Pick one or multiple movie genres.
CINEMA
First cinema release date in any country.
February 02, 2018
DESCRIPTION
Helen Mirren stars as Sarah Winchester, who became one of the wealthiest women alive after her husband died and left her more than half of the Winchester Repeating Arms Company. The late Miss Winchester believed that she was being haunted, and the only way to expel them was to continue expanding her large mansion. This supernatural adaptation of her life is the fifth film directed by the Spierig brothers, Michael and Peter, and features a supporting cast which includes Jason Clarke, Sarah Snook, Laura Brent, and Angus Sampson.
WHERE YOU WATCH

Where you watch Email alert

The movie is online and reported below, Use the alert button to get notified when higher quality versions are available.

Reports

April 20, 2018
Winchester.2018.1080p.BluRay.x264.DTS-HDC
Video and audio quality: 5/5 | Source: BluRay

Submitted by: Mr. Meeseeks | Trust Rank level: Legend Member
Format: Torrent | Site: RARBG
Video ID : 1 Format : AVC Format/Info : Advanced Video Codec Format profile : [email protected] Format settings : CABAC / 5 Ref Frames Format settings, CABAC : Yes Format settings, ReFrames : 5 frames Codec ID : V_MPEG4/ISO/AVC Duration : 1 h 39 min Bit rate : 10 000 kb/s Width : 1 920 pixels Height : 804 pixels Display aspect ratio : 2.40:1 Frame rate mode : Constant Frame rate : 23.976 (24000/1001) FPS Color space : YUV Chroma subsampling : 4:2:0 Bit depth : 8 bits Scan type : Progressive Bits/(Pixel*Frame) : 0.270 Stream size : 6.95 GiB (87%) Title : Winchester.2018.1080p.BluRay.x264.DTS-HDC Writing library : x264 core 148 r2665kMod a01e339 Audio ID : 2 Format : DTS Format/Info : Digital Theater Systems Codec ID : A_DTS Duration : 1 h 39 min Bit rate mode : Constant Bit rate : 1 509 kb/s Channel(s) : 6 channels Channel positions : Front: L C R, Side: L R, LFE Sampling rate : 48.0 kHz Frame rate : 93.750 FPS (512 SPF) Bit depth : 24 bits Compression mode : Lossy Stream size : 1.05 GiB (13%) Title : Winchester.2018.1080p.BluRay.x264.DTS-HDC Language : English Default : Yes Forced : No Text ID : 3 Format : UTF-8 Codec ID : S_TEXT/UTF8 Codec ID/Info : UTF-8 Plain Text Duration : 1 h 26 min Bit rate : 48 b/s Count of elements : 1051 Stream size : 30.8 KiB (0%) Language : English Default : Yes Forced : No
April 17, 2018
Winchester 2018 HDRip XviD AC3-EVO
Video and audio quality: 5/5 | Source: Official web stream

Submitted by: Mr. Meeseeks | Trust Rank level: Legend Member
Format: Torrent | Site: TorrentingMe
ViDEO: 1610 Kbps -2 Passes RESOLUTiON: 720x304 RUNTiME: 1h 39m 43s SUBTiTLES: No. AUDiO: 384 Kbps AC3 5.1 LANGUAGE: ENGLiSH ENCODER: DdHD
February 23, 2018
Winchester.2018.HDCAM.x264-DiRG
Video and audio quality: 1/5 | Source: Camera

Submitted by: Mr. Meeseeks | Trust Rank level: Legend Member
Format: Torrent | Site: ExtraTorrent
Uploader added a watermark obstructing approx. 15% of the screen. It’s in every frame.

Videos Add media

WINCHESTER - Official Trailer - HD (Helen Mirren, Jason Clarke)
WINCHESTER - Official Trailer - HD (Helen Mirren, ...

Movie News

There are no member news items for this movie.
To write a comment please register or