Where's My Roy Cohn?

Where's My Roy Cohn?

Hot
Mr. MeeseeksMr. Meeseeks   August 01, 2019  
Add to list
Where's My Roy Cohn?

Movie info

Title
Confirmed and upcoming movie titles only! Search before adding to avoid dupes.
Where's My Roy Cohn?
Year
The year the movie is set to be released.
2019
Genre
Pick one or multiple movie genres.
Cinema release
First cinema release date in any country.
September 20, 2019
Description
Matt Tyrnauer's documentary about Roy Cohn, a controversial lawyer who has been an influential figure in American politics for decades.
Where you watch

Where you watch Email alert

The movie is online and reported below, Use the alert button to get notified when higher quality versions are available.

Download and stream reports

Can I download or stream Where's My Roy Cohn?? Yes. Reports of pirated torrents and streams are available below.
When will Where's My Roy Cohn? be available on digital platforms like iTunes, Amazon or Apple+? As of now, there's no release date announced. This includes iTunes, Amazon, Blu-Ray and DVD.

February 14, 2020
Wheres.My.Roy.Cohn.2019.1080p.BluRay.REMUX.AVC.DTS-HD.MA.5.1-FGT
Video and audio quality: 5/5 | Source: BluRay

Submitted by: Mr. Meeseeks | Trust Rank level: Supreme Member
Format: Torrent | Site: RARBG
Video ID : 1 Format : AVC Format/Info : Advanced Video Codec Format profile : High@L4.1 Format settings : CABAC / 2 Ref Frames Format settings, CABAC : Yes Format settings, Reference frames : 2 frames Codec ID : V_MPEG4/ISO/AVC Duration : 1 h 37 min Bit rate mode : Variable Bit rate : 18.4 Mb/s Maximum bit rate : 38.2 Mb/s Width : 1 920 pixels Height : 1 080 pixels Display aspect ratio : 16:9 Frame rate mode : Constant Frame rate : 23.976 (24000/1001) FPS Color space : YUV Chroma subsampling : 4:2:0 Bit depth : 8 bits Scan type : Progressive Bits/(Pixel*Frame) : 0.369 Stream size : 12.5 GiB (80%) Title : Wheres.My.Roy.Cohn.2018.1080p.BluRay.REMUX.AVC.DTS-HD.MA.5.1-FGT Language : English Default : No Forced : No Audio #1 ID : 2 Format : DTS XLL Format/Info : Digital Theater Systems Commercial name : DTS-HD Master Audio Codec ID : A_DTS Duration : 1 h 37 min Bit rate mode : Variable Bit rate : 3 745 kb/s Channel(s) : 6 channels Channel layout : C L R Ls Rs LFE Sampling rate : 48.0 kHz Frame rate : 93.750 FPS (512 SPF) Bit depth : 24 bits Compression mode : Lossless Stream size : 2.55 GiB (16%) Title : Wheres.My.Roy.Cohn.2018.1080p.BluRay.REMUX.AVC.DTS-HD.MA.5.1-FGT Language : English Default : Yes Forced : No Audio #2 ID : 3 Format : AC-3 Format/Info : Audio Coding 3 Commercial name : Dolby Digital Codec ID : A_AC3 Duration : 1 h 37 min Bit rate mode : Constant Bit rate : 448 kb/s Channel(s) : 6 channels Channel layout : L R C LFE Ls Rs Sampling rate : 48.0 kHz Frame rate : 31.250 FPS (1536 SPF) Bit depth : 16 bits Compression mode : Lossy Stream size : 313 MiB (2%) Title : Wheres.My.Roy.Cohn.2018.1080p.BluRay.REMUX.AVC.DTS-HD.MA.5.1-FGT Language : English Service kind : Complete Main Default : No Forced : No Audio #3 ID : 4 Format : AC-3 Format/Info : Audio Coding 3 Commercial name : Dolby Digital Codec ID : A_AC3 Duration : 1 h 37 min Bit rate mode : Constant Bit rate : 192 kb/s Channel(s) : 2 channels Channel layout : L R Sampling rate : 48.0 kHz Frame rate : 31.250 FPS (1536 SPF) Bit depth : 16 bits Compression mode : Lossy Stream size : 134 MiB (1%) Title : Wheres.My.Roy.Cohn.2018.1080p.BluRay.REMUX.AVC.DTS-HD.MA.5.1-FGT Language : English Service kind : Complete Main Default : No Forced : No Text #1 ID : 5 Format : PGS Muxing mode : zlib Codec ID : S_HDMV/PGS Codec ID/Info : Picture based subtitle format used on BDs/HD-DVDs Duration : 1 h 18 min Bit rate : 2 438 b/s Count of elements : 110 Stream size : 1.37 MiB (0%) Title : English-FORCED-PGS Language : English Default : Yes Forced : No Text #2 ID : 6 Format : PGS Muxing mode : zlib Codec ID : S_HDMV/PGS Codec ID/Info : Picture based subtitle format used on BDs/HD-DVDs Duration : 1 h 33 min Bit rate : 50.0 kb/s Count of elements : 2512 Stream size : 33.3 MiB (0%) Title : English-PGS Language : English Default : No Forced : No Text #3 ID : 7 Format : PGS Muxing mode : zlib Codec ID : S_HDMV/PGS Codec ID/Info : Picture based subtitle format used on BDs/HD-DVDs Duration : 1 h 34 min Bit rate : 51.5 kb/s Count of elements : 2702 Stream size : 35.0 MiB (0%) Title : English-SDH-PGS Language : English Default : No Forced : No Text #4 ID : 8 Format : PGS Muxing mode : zlib Codec ID : S_HDMV/PGS Codec ID/Info : Picture based subtitle format used on BDs/HD-DVDs Duration : 1 h 37 min Bit rate : 37.1 kb/s Count of elements : 2618 Stream size : 25.8 MiB (0%) Title : French-PGS Language : French Default : No Forced : No Text #5 ID : 9 Format : PGS Muxing mode : zlib Codec ID : S_HDMV/PGS Codec ID/Info : Picture based subtitle format used on BDs/HD-DVDs Duration : 1 h 37 min Bit rate : 48.5 kb/s Count of elements : 2714 Stream size : 33.7 MiB (0%) Title : Spanish-PGS Language : Spanish Default : No Forced : No Text #6 ID : 10 Format : PGS Muxing mode : zlib Codec ID : S_HDMV/PGS Codec ID/Info : Picture based subtitle format used on BDs/HD-DVDs Duration : 1 h 34 min Bit rate : 76.4 kb/s Count of elements : 3482 Stream size : 51.8 MiB (0%) Title : English-COMMENTARY-PGS Language : English Default : No Forced : No

Videos Add media

Where's My Roy Cohn? | Official Trailer HD (2019)
Where's My Roy Cohn? | Official Trailer HD (2019)