What We Started

What We Started

Hot
Mr. MeeseeksMr. Meeseeks   March 18, 2018  
Add to list
What We Started

Movie info

TITLE
Confirmed and upcoming movie titles only! Search before adding to avoid dupes.
What We Started
YEAR
The year the movie is set to be released.
2018
GENRE
Pick one or multiple movie genres.
CINEMA
First cinema release date in any country.
March 23, 2018
DESCRIPTION
“What We Started” follows the modernization, and globalization, of electronic dance music. Featuring interviews with pioneers in the genre on their process an techniques, also speaking to major players in the music industry about the impact this revolution had on the mainstream. The directors sat down with many names, icluding Martin Garrix, Carl Cox, David Guetta, Ed Sheeran, Usher, Tiësto, Moby, Afrojack, and many more.
WHERE YOU WATCH

Where you watch Email alert

The movie is online and reported below, Use the alert button to get notified when higher quality versions are available.

Reports

Is What We Started available online? Yes. Reports of pirated torrents and streams are available below.
When will What We Started be available on digital platforms like iTunes or Amazon? As of now, there's no release data announced. This includes iTunes, Amazon, Blu-Ray and DVD.

June 17, 2018
What.We.Started.2017.720p.AMZN.WEBRip.DDP5.1.x264-NTG
Video and audio quality: 5/5 | Source: Official web stream

Submitted by: Mr. Meeseeks | Trust Rank level: Supreme Member
Format: Torrent | Site: RARBG
Video ID : 1 Format : AVC Format/Info : Advanced Video Codec Format profile : [email protected] Format settings : CABAC / 5 Ref Frames Format settings, CABAC : Yes Format settings, ReFrames : 5 frames Codec ID : V_MPEG4/ISO/AVC Duration : 1 h 35 min Bit rate : 3 646 kb/s Width : 1 280 pixels Height : 720 pixels Display aspect ratio : 16:9 Frame rate mode : Constant Frame rate : 23.976 (24000/1001) FPS Color space : YUV Chroma subsampling : 4:2:0 Bit depth : 8 bits Scan type : Progressive Bits/(Pixel*Frame) : 0.165 Stream size : 2.44 GiB (85%) Default : Yes Forced : No Color range : Limited Color primaries : BT.709 Transfer characteristics : BT.709 Matrix coefficients : BT.709 Audio ID : 2 Format : E-AC-3 Format/Info : Enhanced Audio Coding 3 Codec ID : A_EAC3 Duration : 1 h 35 min Bit rate mode : Constant Bit rate : 640 kb/s Channel(s) : 6 channels Channel positions : Front: L C R, Side: L R, LFE Sampling rate : 48.0 kHz Frame rate : 187.500 FPS (256 SPF) Compression mode : Lossy Stream size : 438 MiB (15%) Language : English Service kind : Complete Main Default : Yes Forced : No Text ID : 3 Format : UTF-8 Codec ID : S_TEXT/UTF8 Codec ID/Info : UTF-8 Plain Text Duration : 1 h 34 min Bit rate : 82 b/s Count of elements : 1749 Stream size : 56.8 KiB (0%) Title : SDH Language : English Default : No Forced : No

Videos Add media

What We Started - Trailer
What We Started - Trailer