Wasp Network

Wasp Network

Hot
MavoyMavoy   July 27, 2019  
Add to list
Wasp Network

Movie info

Title
Confirmed and upcoming movie titles only! Search before adding to avoid dupes.
Wasp Network
Year
The year the movie is set to be released.
2020
Director
Olivier Assayas
Genre
Pick one or multiple movie genres.
Cinema release
First cinema release date in any country.
January 29, 2020
Digital release
Official digital release date on services such as iTunes, Amazon, Netflix. It's the first known release date, without any country restriction. So if it's out on iTunes Russia first, this would be the digital release date.
June 19, 2020
Description
The story of the fight between anti-Castro and pro-Castro groups in Cuba in late 80s. Starring Edgar Ramírez, Penélope Cruz, Gael García Bernal, Wagner Moura, Ana de Armas, Leonardo Sbaraglia, and Julian Flynn.
Where you watch

Where you watch Email alert

Yes, it is available and reported below. Use the alert button to get notified when higher quality versions are available.

Download and stream reports

Is there a Wasp Network torrent? Yes. Reports are available below.
When will Wasp Network be available on VOD? It's set for a June 19, 2020 release.

July 29, 2020
Wasp.Network.2019.1080p.BluRay.REMUX.AVC.DTS-HD.MA.5.1-FGT
Video and audio quality: 5/5 | Source: BluRay

Submitted by: Mr. Meeseeks | Trust Rank level: Supreme Member
Format: Torrent | Site: RARBG
Video ID : 1 ID in the original source medium : 4113 (0x1011) Format : AVC Format/Info : Advanced Video Codec Format profile : High@L4.1 Format settings : CABAC / 4 Ref Frames Format settings, CABAC : Yes Format settings, Reference frames : 4 frames Codec ID : V_MPEG4/ISO/AVC Duration : 2 h 7 min Bit rate mode : Variable Bit rate : 27.6 Mb/s Maximum bit rate : 32.0 Mb/s Width : 1 920 pixels Height : 1 080 pixels Display aspect ratio : 16:9 Frame rate mode : Constant Frame rate : 24.000 FPS Color space : YUV Chroma subsampling : 4:2:0 Bit depth : 8 bits Scan type : Progressive Bits/(Pixel*Frame) : 0.555 Stream size : 24.6 GiB (89%) Title : Wasp.Network.2019.1080p.BluRay.REMUX.AVC.DTS-HD.MA.5.1-FGT Language : English Default : No Forced : No Original source medium : Blu-ray Audio ID : 2 ID in the original source medium : 4355 (0x1103) Format : DTS XLL Format/Info : Digital Theater Systems Commercial name : DTS-HD Master Audio Codec ID : A_DTS Duration : 2 h 7 min Bit rate mode : Variable Bit rate : 3 464 kb/s Channel(s) : 6 channels Channel layout : C L R Ls Rs LFE Sampling rate : 48.0 kHz Frame rate : 93.750 FPS (512 SPF) Bit depth : 24 bits Compression mode : Lossless Stream size : 3.08 GiB (11%) Title : Wasp.Network.2019.1080p.BluRay.REMUX.AVC.DTS-HD.MA.5.1-FGT Language : English Default : Yes Forced : No Original source medium : Blu-ray Text #1 ID : 3 Format : UTF-8 Codec ID : S_TEXT/UTF8 Codec ID/Info : UTF-8 Plain Text Duration : 1 h 59 min Bit rate : 33 b/s Count of elements : 1112 Stream size : 28.9 KiB (0%) Title : FORCED Language : English Default : Yes Forced : Yes
June 19, 2020
Wasp.Network.2019.720p.NF.WEBRip.800MB.x264-GalaxyRG
Video and audio quality: 5/5 | Source: Official web stream

Submitted by: Mr. Meeseeks | Trust Rank level: Supreme Member
Format: Torrent | Site: TorrentGalaxy
Container = Matroska (mkv) Duration = 02:08:02.357 Filesize = 797 MiB Overall bitrate = 871 kb/s Video Codec info = AVC High@L3.1 | V_MPEG4/ISO/AVC Resolution = 1280x720 Display AR = 1.778 | 16:9 Bitrate = 4 839 kb/s Framerate = VFR 24.000 Color space = YUV Chroma subsampling = 4:2:0 Encoder = x264 - core 157 Audio Codec info = AAC | A_AAC-2 Channels = 2 Bitrate = 640 kb/s Samplerate = 48.0 kHz Language = English

Videos Add media

Wasp Network | Official Trailer | Netflix
Wasp Network | Official Trailer | Netflix