Vitalina Varela

Vitalina Varela

Hot
nihudobnihudob   September 01, 2019  
Add to list
VITALINA VARELA Trailer | TIFF 2019

Movie info

TITLE
Confirmed and upcoming movie titles only! Search before adding to avoid dupes.
Vitalina Varela
YEAR
The year the movie is set to be released.
2019
DIRECTOR
GENRE
Pick one or multiple movie genres.
CINEMA
First cinema release date in any country.
January 01, 1970
DESCRIPTION
The winner of Locarno 2019
Another one Pedro Costa's journey into the Cape Verdean ghetto near Lisbon.
WHERE YOU WATCH

Where you watch Email alert

The movie is online and reported below, Use the alert button to get notified when higher quality versions are available.

Reports

Is Vitalina Varela available online? Yes. Reports of pirated torrents and streams are available below.
When will Vitalina Varela be available on digital platforms like iTunes, Amazon or Apple+? As of now, there's no release date announced. This includes iTunes, Amazon, Blu-Ray and DVD.

January 09, 2020
Vitalina Varela (2019)etc1080p
Video and audio quality: 4/5 | Source: Official web stream

Submitted by: Mavoy | Trust Rank level: Hero member
Format: Torrent | Site: Monova
Harcoded English subtitles. Video ID : 1 Format : AVC Format/Info : Advanced Video Codec Format profile : [email protected] Format settings : CABAC / 4 Ref Frames Format settings, CABAC : Yes Format settings, Reference : 4 frames Codec ID : V_MPEG4/ISO/AVC Duration : 2 h 4 min Bit rate mode : Variable Bit rate : 2 796 kb/s Maximum bit rate : 4 500 kb/s Width : 1 440 pixels Height : 1 080 pixels Display aspect ratio : 4:3 Frame rate mode : Constant Frame rate : 25.000 FPS Color space : YUV Chroma subsampling : 4:2:0 Bit depth : 8 bits Scan type : Progressive Bits/(Pixel*Frame) : 0.072 Stream size : 2.43 GiB (94%) Language : Portuguese Default : Yes Forced : No Audio ID : 2 Format : AAC LC Format/Info : Advanced Audio Codec Low Complexity Codec ID : A_AAC-2 Duration : 2 h 4 min Bit rate : 192 kb/s Channel(s) : 2 channels Channel layout : L R Sampling rate : 44.1 kHz Frame rate : 43.066 FPS (1024 SPF) Compression mode : Lossy Delay relative to video : -46 ms Stream size : 171 MiB (6%) Language : Portuguese Default : Yes Forced : No