Victoria & Abdul

Victoria & Abdul

Ramona FlowersRamona Flowers   August 21, 2017  
News (0)
Add to list
Victoria & Abdul

Movie info

TITLE
Confirmed and upcoming movie titles only! Search before adding to avoid dupes.
YEAR
The year the movie is set to be released.
2017
GENRE
Pick one or multiple movie genres.
CINEMA
First cinema release date in any country.
September 15, 2017
DESCRIPTION
"Victoria & Abdul" is the twenty-third feature film directed by Stephen Frears, which will be released to cinemas in the United Kingdom on September 15th, 2017. The plot is based on the real-life relationship between Queen Victoria and her Indian servant Abdul Karim.
WHERE YOU WATCH

Where you watch Email alert

The movie is online and reported below, Use the alert button to get notified when higher quality versions are available.

Reports

April 07, 2018
Victoria.and.Abdul.2017.1080p.BluRay.REMUX.AVC.DTS-HD.MA.5.1-FGT
Video and audio quality: 5/5 | Source: BluRay

Submitted by: Mr. Meeseeks | Trust Rank level: Legend Member
Format: Torrent | Site: RARBG
Video ID : 1 Format : AVC Format/Info : Advanced Video Codec Format profile : [email protected] Format settings : CABAC / 4 Ref Frames Format settings, CABAC : Yes Format settings, ReFrames : 4 frames Codec ID : V_MPEG4/ISO/AVC Duration : 1 h 51 min Bit rate mode : Variable Maximum bit rate : 35.0 Mb/s Width : 1 920 pixels Height : 1 080 pixels Display aspect ratio : 16:9 Frame rate mode : Constant Frame rate : 23.976 (24000/1001) FPS Color space : YUV Chroma subsampling : 4:2:0 Bit depth : 8 bits Scan type : Progressive Title : Victoria.and.Abdul.2017.1080p.BluRay.REMUX.AVC.DTS-HD.MA.5.1-FGT Language : English Default : No Forced : No Audio #1 ID : 2 Format : DTS Format/Info : Digital Theater Systems Format profile : MA / Core Codec ID : A_DTS Duration : 1 h 51 min Bit rate mode : Variable / Constant Bit rate : Unknown / 1 509 kb/s Channel(s) : 6 channels Channel positions : Front: L C R, Side: L R, LFE Sampling rate : 48.0 kHz Frame rate : 93.750 FPS (512 SPF) Bit depth : 24 bits Compression mode : Lossless / Lossy Title : Victoria.and.Abdul.2017.1080p.BluRay.REMUX.AVC.DTS-HD.MA.5.1-FGT Language : English Default : Yes Forced : No Audio #2 ID : 3 Format : DTS Format/Info : Digital Theater Systems Codec ID : A_DTS Duration : 1 h 51 min Bit rate mode : Constant Bit rate : 1 509 kb/s Channel(s) : 6 channels Channel positions : Front: L C R, Side: L R, LFE Sampling rate : 48.0 kHz Frame rate : 93.750 FPS (512 SPF) Bit depth : 24 bits Compression mode : Lossy Stream size : 1.17 GiB (4%) Title : Victoria.and.Abdul.2017.1080p.BluRay.REMUX.AVC.DTS-HD.MA.5.1-FGT Language : English Default : No Forced : No Audio #3 ID : 4 Format : DTS Format/Info : Digital Theater Systems Codec ID : A_DTS Duration : 1 h 51 min Bit rate mode : Constant Bit rate : 768 kb/s Channel(s) : 6 channels Channel positions : Front: L C R, Side: L R, LFE Sampling rate : 48.0 kHz Frame rate : 93.750 FPS (512 SPF) Bit depth : 24 bits Compression mode : Lossy Stream size : 611 MiB (2%) Title : Victoria.and.Abdul.2017.1080p.BluRay.REMUX.AVC.DTS-HD.MA.5.1-FGT Language : Spanish Default : No Forced : No Audio #4 ID : 5 Format : DTS Format/Info : Digital Theater Systems Codec ID : A_DTS Duration : 1 h 51 min Bit rate mode : Constant Bit rate : 768 kb/s Channel(s) : 6 channels Channel positions : Front: L C R, Side: L R, LFE Sampling rate : 48.0 kHz Frame rate : 93.750 FPS (512 SPF) Bit depth : 24 bits Compression mode : Lossy Stream size : 611 MiB (2%) Title : Victoria.and.Abdul.2017.1080p.BluRay.REMUX.AVC.DTS-HD.MA.5.1-FGT Language : French Default : No Forced : No Audio #5 ID : 6 Format : AC-3 Format/Info : Audio Coding 3 Codec ID : A_AC3 Duration : 1 h 51 min Bit rate mode : Constant Bit rate : 192 kb/s Channel(s) : 2 channels Channel positions : Front: L R Sampling rate : 48.0 kHz Frame rate : 31.250 FPS (1536 SPF) Bit depth : 16 bits Compression mode : Lossy Stream size : 153 MiB (1%) Title : Victoria.and.Abdul.2017.1080p.BluRay.REMUX.AVC.DTS-HD.MA.5.1-FGT Language : English Service kind : Complete Main Default : No Forced : No Text #1 ID : 7 Format : PGS Muxing mode : zlib Codec ID : S_HDMV/PGS Codec ID/Info : Picture based subtitle format used on BDs/HD-DVDs Title : English-PGS Language : English Default : Yes Forced : No Text #2 ID : 8 Format : PGS Muxing mode : zlib Codec ID : S_HDMV/PGS Codec ID/Info : Picture based subtitle format used on BDs/HD-DVDs Title : Spanish-PGS Language : Spanish Default : No Forced : No Text #3 ID : 9 Format : PGS Muxing mode : zlib Codec ID : S_HDMV/PGS Codec ID/Info : Picture based subtitle format used on BDs/HD-DVDs Title : French-PGS Language : French Default : No Forced : No Text #4 ID : 10 Format : PGS Muxing mode : zlib Codec ID : S_HDMV/PGS Codec ID/Info : Picture based subtitle format used on BDs/HD-DVDs Title : Spanish-FORCED-PGS Language : Spanish Default : No Forced : No Text #5 ID : 11 Format : PGS Muxing mode : zlib Codec ID : S_HDMV/PGS Codec ID/Info : Picture based subtitle format used on BDs/HD-DVDs Title : French-FORCED-PGS Language : French Default : No Forced : No
December 05, 2017
Victoria And Abdul 2017 720p WEB-DL H264 AC3-EVO
Video and audio quality: 5/5 | Source: Official web stream

Submitted by: Mojib | Trust Rank level: Hero member
Format: Official stream | Site: iTunes
Retail.

Videos Add media

Victoria & Abdul (Official Trailer)
Victoria & Abdul (Official Trailer)

Movie News

There are no member news items for this movie.
To write a comment please register or