VFW

Hot
Mr. MeeseeksMr. Meeseeks   December 12, 2019  
Add to list
VFW

Movie info

Title
Confirmed and upcoming movie titles only! Search before adding to avoid dupes.
VFW
Year
The year the movie is set to be released.
2020
Director
Genre
Pick one or multiple movie genres.
Digital release
Official digital release date on services such as iTunes, Amazon, Netflix. It's the first known release date, without any country restriction. So if it's out on iTunes Russia first, this would be the digital release date.
February 14, 2020
Description
Starring Stephen Lang, William Sadler, Martin Kove, David Patrick Kelly, Sierra McCormick, Tom Williamson, Travis Hammer, George Wendt, and Fred Williamson.
Where you watch

Where you watch Email alert

Yes, it is available and reported below. Use the alert button to get notified when higher quality versions are available.

Download and stream reports

Can I download or stream VFW? Yes. Reports of pirated torrents and streams are available below.
When will VFW be available on digital platforms like iTunes or Amazon? It's set for a February 14, 2020 release. This likely includes iTunes and Amazon unless it is an exclusive Netflix, or similar, release. Physical versions on Blu-Ray or DVD will likely follow.

April 13, 2020
VFW.2019.1080p.BluRay.x264.DTS-HD.MA.5.1-FGT
Video and audio quality: 5/5 | Source: BluRay

Submitted by: Mr. Meeseeks | Trust Rank level: Supreme Member
Format: Torrent | Site: RARBG
Video ID : 1 Format : AVC Format/Info : Advanced Video Codec Format profile : High@L4.1 Format settings : CABAC / 5 Ref Frames Format settings, CABAC : Yes Format settings, Reference frames : 5 frames Codec ID : V_MPEG4/ISO/AVC Duration : 1 h 31 min Bit rate : 10.4 Mb/s Width : 1 920 pixels Height : 808 pixels Display aspect ratio : 2.40:1 Frame rate mode : Constant Frame rate : 24.000 FPS Color space : YUV Chroma subsampling : 4:2:0 Bit depth : 8 bits Scan type : Progressive Bits/(Pixel*Frame) : 0.281 Stream size : 6.68 GiB (71%) Title : VFW.2019.1080p.BluRay.x264.DTS-HD.MA.5.1-FGT Writing library : x264 core 159 r2991 1771b55 Encoding settings : cabac=1 / ref=5 / deblock=1:-3:-3 / analyse=0x3:0x113 / me=umh / subme=8 / psy=1 / psy_rd=1.00:0.00 / mixed_ref=1 / me_range=16 / chroma_me=1 / trellis=1 / 8x8dct=1 / cqm=0 / deadzone=21,11 / fast_pskip=1 / chroma_qp_offset=-2 / threads=25 / lookahead_threads=4 / sliced_threads=0 / nr=0 / decimate=1 / interlaced=0 / bluray_compat=0 / constrained_intra=0 / bframes=3 / b_pyramid=2 / b_adapt=1 / b_bias=0 / direct=3 / weightb=1 / open_gop=0 / weightp=2 / keyint=250 / keyint_min=24 / scenecut=40 / intra_refresh=0 / rc_lookahead=50 / rc=2pass / mbtree=1 / bitrate=10445 / ratetol=1.0 / qcomp=0.60 / qpmin=0 / qpmax=69 / qpstep=4 / cplxblur=20.0 / qblur=0.5 / ip_ratio=1.40 / aq=1:1.00 Language : English Default : Yes Forced : No Audio ID : 2 Format : DTS XLL Format/Info : Digital Theater Systems Commercial name : DTS-HD Master Audio Codec ID : A_DTS Duration : 1 h 31 min Bit rate mode : Variable Bit rate : 4 191 kb/s Channel(s) : 6 channels Channel layout : C L R Ls Rs LFE Sampling rate : 48.0 kHz Frame rate : 93.750 FPS (512 SPF) Bit depth : 24 bits Compression mode : Lossless Stream size : 2.68 GiB (29%) Title : VFW.2019.1080p.BluRay.x264.DTS-HD.MA.5.1-FGT Language : English Default : Yes Forced : No Text #1 ID : 3 Format : UTF-8 Codec ID : S_TEXT/UTF8 Codec ID/Info : UTF-8 Plain Text Duration : 1 h 25 min Bit rate : 53 b/s Count of elements : 1213 Stream size : 33.9 KiB (0%) Title : English-SRT Language : English Default : Yes Forced : No Text #2 ID : 4 Format : PGS Muxing mode : zlib Codec ID : S_HDMV/PGS Codec ID/Info : Picture based subtitle format used on BDs/HD-DVDs Duration : 1 h 28 min Bit rate : 26.6 kb/s Count of elements : 2950 Stream size : 16.8 MiB (0%) Title : English-PGS Language : English Default : No Forced : No
February 14, 2020
VFW.2019.720p.WEBRip.800MB.x264-GalaxyRG
Video and audio quality: 5/5 | Source: Official web stream

Submitted by: Mr. Meeseeks | Trust Rank level: Supreme Member
Format: Torrent | Site: TorrentGalaxy
Container = Matroska (mkv) Duration = 01:31:46.101 Filesize = 797 MiB Overall bitrate = 1 214 kb/s Video Codec info = AVC High@L3.1 | V_MPEG4/ISO/AVC Resolution = 1280x720 Display AR = 1.778 | 16:9 Bitrate = 7 832 kb/s Framerate = VFR 24.000 Color space = YUV Chroma subsampling = 4:2:0 Encoder = x264 - core 157 Audio Codec info = AAC | A_AAC-2 Channels = 2 Bitrate = 384 kb/s Samplerate = 48.0 kHz Language = English

Videos Add media

VFW | Official Trailer | Voltage Pictures
VFW | Official Trailer | Voltage Pictures