Vengeance Is Mine

Vengeance Is Mine

Mr. MeeseeksMr. Meeseeks   September 22, 2021  
Add to list
Vengeance Is Mine

Movie info

Title
Confirmed and upcoming movie titles only! Search before adding to avoid dupes.
Vengeance Is Mine
Year
The year the movie is set to be released.
2021
Director
Hadi Hajaig
Genre
Pick one or multiple movie genres.
Digital release
Official digital release date on services such as iTunes, Amazon, Netflix. It's the first known release date, without any country restriction. So if it's out on iTunes Russia first, this would be the digital release date.
October 08, 2021
Description
Starring Con O'Neill, Sarah-Jane Potts, Anton Saunders, Ricky Grover, and Peter Pedrero.
Where you watch

Where you watch Email alert

Yes, it is available and reported below. Use the alert button to get notified when higher quality versions are available.

Download and stream reports

Is there a Vengeance Is Mine torrent? Yes. Reports are available below.
When will Vengeance Is Mine be available on VOD? It's set for a October 08, 2021 release.

October 08, 2021
Vengeance.Is.Mine.2021.1080p.WEBRip.AAC2.0.x264-NOGRP
Video and audio quality: 5/5 | Source: Official web stream

Submitted by: Mr. Meeseeks | Trust Rank level: Supreme Member
Format: Torrent | Site: RARBG
Video ID : 1 Format : AVC Format/Info : Advanced Video Codec Format profile : High@L4 Format settings : CABAC / 4 Ref Frames Format settings, CABAC : Yes Format settings, Reference frames : 4 frames Codec ID : V_MPEG4/ISO/AVC Duration : 1 h 24 min Bit rate : 6 546 kb/s Width : 1 912 pixels Height : 1 032 pixels Display aspect ratio : 1.85:1 Frame rate mode : Constant Frame rate : 23.976 (24000/1001) FPS Color space : YUV Chroma subsampling : 4:2:0 Bit depth : 8 bits Scan type : Progressive Bits/(Pixel*Frame) : 0.138 Stream size : 3.85 GiB (98%) Language : English Default : Yes Forced : No Color range : Limited Color primaries : BT.709 Transfer characteristics : BT.709 Matrix coefficients : BT.709 Audio ID : 2 Format : AAC LC Format/Info : Advanced Audio Codec Low Complexity Codec ID : A_AAC-2 Duration : 1 h 24 min Bit rate : 162 kb/s Channel(s) : 2 channels Channel layout : L R Sampling rate : 48.0 kHz Frame rate : 46.875 FPS (1024 SPF) Compression mode : Lossy Stream size : 97.8 MiB (2%) Title : English Language : English Default : No Forced : No Text ID : 3 Format : UTF-8 Codec ID : S_TEXT/UTF8 Codec ID/Info : UTF-8 Plain Text Duration : 1 h 0 min Bit rate : 11 b/s Count of elements : 233 Stream size : 5.22 KiB (0%) Language : English Default : Yes Forced : No

Videos Add media

Vengeance Is Mine | Official Trailer (HD) | Vertical Entertainment
Vengeance Is Mine | Official Trailer (HD) | Vertic...