V/H/S/94

V/H/S/94

Hot
Mr. MeeseeksMr. Meeseeks   September 17, 2021  
Add to list
V/H/S/94

Movie info

Title
Confirmed and upcoming movie titles only! Search before adding to avoid dupes.
V/H/S/94
Year
The year the movie is set to be released.
2021
Genre
Pick one or multiple movie genres.
Digital release
Official digital release date on services such as iTunes, Amazon, Netflix. It's the first known release date, without any country restriction. So if it's out on iTunes Russia first, this would be the digital release date.
October 06, 2021
Description
The fourth installment in the cult-classic low-budget found-footage horror anthology franchise "V/H/S". Each film features various shorts that exist within a collection of haunted V/H/S tapes, the story is stitched together by an unfortunate soul who discovers the tapes, and chooses to view them.

A total of five shorts are featured in "V/H/S/94", courtesy of directors Simon Barrett, Chloe Okuno, Ryan Prows, Jennifer Reeder, and Timo Tjahjanto. The screenplay is written by executive producer David Bruckner.
Where you watch

Where you watch Email alert

Yes, it is available and reported below. Use the alert button to get notified when higher quality versions are available.

Download and stream reports

Is there a V/H/S/94 torrent? Yes. Reports are available below.
When will V/H/S/94 be available on VOD? It's set for a October 06, 2021 release.

October 06, 2021
V.H.S.94.2021.1080p.AMZN.WEBRip.DDP2.0.x264-TEPES
Video and audio quality: 5/5 | Source: Official web stream

Submitted by: Mr. Meeseeks | Trust Rank level: Supreme Member
Format: Torrent | Site: RARBG
Video ID : 1 Format : AVC Format/Info : Advanced Video Codec Format profile : High@L4 Format settings : CABAC / 4 Ref Frames Format settings, CABAC : Yes Format settings, Reference frames : 4 frames Codec ID : V_MPEG4/ISO/AVC Duration : 1 h 43 min Bit rate mode : Constant Bit rate : 10 000 kb/s Width : 1 920 pixels Height : 1 080 pixels Display aspect ratio : 16:9 Frame rate mode : Constant Frame rate : 30.000 FPS Color space : YUV Chroma subsampling : 4:2:0 Bit depth : 8 bits Scan type : Progressive Bits/(Pixel*Frame) : 0.161 Stream size : 6.91 GiB (98%) Language : English Default : Yes Forced : No Color range : Limited Color primaries : BT.709 Transfer characteristics : BT.709 Matrix coefficients : BT.709 Audio ID : 2 Format : E-AC-3 Format/Info : Enhanced AC-3 Commercial name : Dolby Digital Plus Codec ID : A_EAC3 Duration : 1 h 43 min Bit rate mode : Constant Bit rate : 224 kb/s Channel(s) : 2 channels Channel layout : L R Sampling rate : 48.0 kHz Frame rate : 31.250 FPS (1536 SPF) Compression mode : Lossy Stream size : 166 MiB (2%) Language : English Service kind : Complete Main Default : Yes Forced : No

Videos Add media

V/H/S/94 - Official Trailer [HD] | A Shudder Original
V/H/S/94 - Official Trailer [HD] | A Shudder Origi...