Untouchable

Untouchable

Mr. MeeseeksMr. Meeseeks   August 10, 2019  
Add to list
Untouchable

Movie info

TITLE
Confirmed and upcoming movie titles only! Search before adding to avoid dupes.
Untouchable
YEAR
The year the movie is set to be released.
2019
GENRE
Pick one or multiple movie genres.
DIGITAL RELEASE
Official digital release date on services such as iTunes, Amazon, Netflix. It's the first known release date, without any country restriction. So if it's out on iTunes Russia first, this would be the digital release date.
September 02, 2019
DESCRIPTION
Documentary film about the infamous Harvey Weinstein, his career of silencing victims, and the scandal that took the world by storm.
WHERE YOU WATCH

Where you watch Email alert

The movie is online and reported below, Use the alert button to get notified when higher quality versions are available.

Reports

Is Untouchable available online? Yes. Reports of pirated torrents and streams are available below.
When will Untouchable be available on digital platforms like iTunes or Amazon? It's set for a September 02, 2019 release. This likely includes iTunes and Amazon unless it is an exclusive Netflix, or similar, release. Physical versions on Blu-Ray or DVD will likely follow.

September 03, 2019
Untouchable.2019.1080p.HULU.WEBRip.DDP5.1.x264-NTb
Video and audio quality: 5/5 | Source: Official web stream

Submitted by: Mr. Meeseeks | Trust Rank level: Supreme Member
Format: Torrent | Site: RARBG
Video ID : 1 Format : AVC Format/Info : Advanced Video Codec Format profile : [email protected] Format settings : CABAC / 4 Ref Frames Format settings, CABAC : Yes Format settings, Reference frames : 4 frames Codec ID : V_MPEG4/ISO/AVC Duration : 1 h 38 min Bit rate : 3 645 kb/s Width : 1 920 pixels Height : 1 080 pixels Display aspect ratio : 16:9 Frame rate mode : Constant Frame rate : 24.000 FPS Color space : YUV Chroma subsampling : 4:2:0 Bit depth : 8 bits Scan type : Progressive Bits/(Pixel*Frame) : 0.073 Stream size : 2.52 GiB (93%) Default : Yes Forced : No Audio ID : 2 Format : E-AC-3 Format/Info : Enhanced AC-3 Commercial name : Dolby Digital Plus Codec ID : A_EAC3 Duration : 1 h 38 min Bit rate mode : Constant Bit rate : 256 kb/s Channel(s) : 6 channels Channel layout : L R C LFE Ls Rs Sampling rate : 48.0 kHz Frame rate : 31.250 FPS (1536 SPF) Compression mode : Lossy Stream size : 181 MiB (7%) Language : English Service kind : Complete Main Default : Yes Forced : No Text #1 ID : 3 Format : UTF-8 Codec ID : S_TEXT/UTF8 Codec ID/Info : UTF-8 Plain Text Duration : 1 h 38 min Bit rate : 95 b/s Count of elements : 1469 Stream size : 68.6 KiB (0%) Language : English Default : No Forced : No Text #2 ID : 4 Format : UTF-8 Codec ID : S_TEXT/UTF8 Codec ID/Info : UTF-8 Plain Text Duration : 1 h 35 min Bit rate : 104 b/s Count of elements : 1521 Stream size : 73.0 KiB (0%) Language : Spanish Default : No Forced : No

Videos Add media

Untouchable Trailer (Official) • A Hulu Original Documentary
Untouchable Trailer (Official) • A Hulu Original...