Unsane

Unsane

Hot
Mr. MeeseeksMr. Meeseeks   January 13, 2018  
News (0)
Add to list
Unsane

Movie info

TITLE
Confirmed and upcoming movie titles only! Search before adding to avoid dupes.
YEAR
The year the movie is set to be released.
2018
GENRE
Pick one or multiple movie genres.
CINEMA
First cinema release date in any country.
March 23, 2018
DESCRIPTION
The upcoming psychological thriller, “Unsane”, is the twenty-ninth feature film from Academy award-winning filmmaker Steven Soderbergh. Scenes for the film were apparently shot using an iPhone. Expected in theaters this March, featuring a cast which includes Claire Foy, Juno Temple, Joshua Leonard, Jay Pharoah, Aimee Mullins, and Amy Irving.
WHERE YOU WATCH

Where you watch Email alert

The movie is online and reported below, Use the alert button to get notified when higher quality versions are available.

Reports

June 06, 2018
Unsane.2018.1080p.BluRay.x264-DRONES
Video and audio quality: 5/5 | Source: BluRay

Submitted by: Mr. Meeseeks | Trust Rank level: Legend Member
Format: Torrent | Site: RARBG
Video ID : 1 Format : AVC Format/Info : Advanced Video Codec Format profile : [email protected] Format settings : CABAC / 4 Ref Frames Format settings, CABAC : Yes Format settings, RefFrames : 4 frames Codec ID : V_MPEG4/ISO/AVC Duration : 1 h 38 min Bit rate : 9 646 kb/s Width : 1 696 pixels Height : 1 080 pixels Display aspect ratio : 16:10 Frame rate mode : Constant Frame rate : 23.976 FPS Color space : YUV Chroma subsampling : 4:2:0 Bit depth : 8 bits Scan type : Progressive Bits/(Pixel*Frame) : 0.220 Stream size : 6.62 GiB (86%) Writing library : x264 core 155 r2901 7d0ff22 Language : English Default : Yes Forced : No Audio ID : 2 Format : DTS Format/Info : Digital Theater Systems Mode : 16 Format settings, Endianness : Big Codec ID : A_DTS Duration : 1 h 38 min Bit rate mode : Constant Bit rate : 1 509 kb/s Channel(s) : 6 channels Channel positions : Front: L C R, Side: L R, LFE Sampling rate : 48.0 kHz Frame rate : 93.750 FPS (512 SPF) Bit depth : 24 bits Compression mode : Lossy Stream size : 1.03 GiB (14%) Language : English Default : Yes Forced : No Menu 00:00:00.000 : en:00:00:00.000 00:05:40.257 : en:00:05:40.257 00:10:21.913 : en:00:10:21.913 00:14:24.697 : en:00:14:24.697 00:19:26.332 : en:00:19:26.332 00:24:46.235 : en:00:24:46.235 00:29:10.165 : en:00:29:10.165 00:36:35.402 : en:00:36:35.402 00:40:25.089 : en:00:40:25.089 00:45:23.596 : en:00:45:23.596 00:50:14.803 : en:00:50:14.803 00:56:12.286 : en:00:56:12.286 00:59:06.835 : en:00:59:06.835 01:04:44.464 : en:01:04:44.464 01:07:30.046 : en:01:07:30.046 01:15:37.450 : en:01:15:37.450 01:23:25.334 : en:01:23:25.334 01:26:39.653 : en:01:26:39.653 01:30:23.168 : en:01:30:23.168 01:35:08.411 : en:01:35:08.411
May 29, 2018
Unsane.2018.1080p.WEB-DL.H264.AC3-EVO
Video and audio quality: 5/5 | Source: Official web stream

Submitted by: armiestice | Trust Rank level: Standard member
Format: Torrent | Site: Torrenting
1688x800 itunes rip

Videos Add media

UNSANE | Official Trailer | In theaters March 23
UNSANE | Official Trailer | In theaters March 23

Movie News

There are no member news items for this movie.
To write a comment please register or