Unpregnant

Unpregnant

Mr. MeeseeksMr. Meeseeks   August 12, 2020  
Add to list
Unpregnant

Movie info

Title
Confirmed and upcoming movie titles only! Search before adding to avoid dupes.
Unpregnant
Year
The year the movie is set to be released.
2020
Genre
Pick one or multiple movie genres.
Digital release
Official digital release date on services such as iTunes, Amazon, Netflix. It's the first known release date, without any country restriction. So if it's out on iTunes Russia first, this would be the digital release date.
September 10, 2020
Description
Starring Haley Lu Richardson, Barbie Ferreira, Alex MacNicoll, Breckin Meyer, Giancarlo Esposito, Sugar Lyn Beard, Betty Who, Mary McCormack, Denny Love, Ramona Young, and Kara Royster.
Where you watch

Where you watch Email alert

Yes, it is available and reported below. Use the alert button to get notified when higher quality versions are available.

Download and stream reports

Can I download or stream Unpregnant? Yes. Reports of pirated torrents and streams are available below.
When will Unpregnant be available on digital platforms like iTunes or Amazon? It's set for a September 10, 2020 release. This likely includes iTunes and Amazon unless it is an exclusive Netflix, or similar, release. Physical versions on Blu-Ray or DVD will likely follow.

September 10, 2020
Unpregnant.2020.1080p.HMAX.WEBRip.DD5.1.x264-CM
Video and audio quality: 5/5 | Source: Official web stream

Submitted by: Mr. Meeseeks | Trust Rank level: Supreme Member
Format: Torrent | Site: RARBG
Video ID : 1 Format : AVC Format/Info : Advanced Video Codec Format profile : High@L4 Format settings : CABAC / 4 Ref Frames Format settings, CABAC : Yes Format settings, Reference frames : 4 frames Codec ID : V_MPEG4/ISO/AVC Duration : 1 h 43 min Bit rate mode : Variable Bit rate : 8 239 kb/s Maximum bit rate : 12.4 Mb/s Width : 1 920 pixels Height : 1 080 pixels Display aspect ratio : 16:9 Frame rate mode : Constant Frame rate : 23.976 (24000/1001) FPS Color space : YUV Chroma subsampling : 4:2:0 Bit depth : 8 bits Scan type : Progressive Bits/(Pixel*Frame) : 0.166 Stream size : 5.96 GiB (96%) Default : Yes Forced : No Color range : Limited Color primaries : BT.709 Transfer characteristics : BT.709 Matrix coefficients : BT.709 Audio ID : 2 Format : AC-3 Format/Info : Audio Coding 3 Commercial name : Dolby Digital Codec ID : A_AC3 Duration : 1 h 43 min Bit rate mode : Constant Bit rate : 384 kb/s Channel(s) : 6 channels Channel layout : L R C LFE Ls Rs Sampling rate : 48.0 kHz Frame rate : 31.250 FPS (1536 SPF) Compression mode : Lossy Stream size : 285 MiB (4%) Title : English Language : English Service kind : Complete Main Default : No Forced : No

Videos Add media

Unpregnant | Official Trailer | HBO Max
Unpregnant | Official Trailer | HBO Max