Unmasking Jihadi John: Anatomy of a Terrorist

Unmasking Jihadi John: Anatomy of a Terrorist

Mr. MeeseeksMr. Meeseeks   August 10, 2019  
Add to list
Unmasking Jihadi John: Anatomy of a Terrorist

Movie info

TITLE
Confirmed and upcoming movie titles only! Search before adding to avoid dupes.
Unmasking Jihadi John: Anatomy of a Terrorist
YEAR
The year the movie is set to be released.
2019
GENRE
Pick one or multiple movie genres.
DIGITAL RELEASE
Official digital release date on services such as iTunes, Amazon, Netflix. It's the first known release date, without any country restriction. So if it's out on iTunes Russia first, this would be the digital release date.
July 31, 2019
DESCRIPTION
Documentary film about terrorist Mohammed Emwazi.
WHERE YOU WATCH

Where you watch Email alert

The movie is online and reported below, Use the alert button to get notified when higher quality versions are available.

Reports

Is Unmasking Jihadi John: Anatomy of a Terrorist available online? Yes. Reports of pirated torrents and streams are available below.
When will Unmasking Jihadi John: Anatomy of a Terrorist be available on digital platforms like iTunes or Amazon? It's set for a July 31, 2019 release. This likely includes iTunes and Amazon unless it is an exclusive Netflix, or similar, release. Physical versions on Blu-Ray or DVD will likely follow.

August 10, 2019
Unmasking.Jihadi.John.Anatomy.of.a.Terrorist.2019.1080p.AMZN.WEBRip.DDP2.0.x264-NTG
Video and audio quality: 5/5 | Source: Official web stream

Submitted by: Mr. Meeseeks | Trust Rank level: Supreme Member
Format: Torrent | Site: RARBG
Video ID : 1 Format : AVC Format/Info : Advanced Video Codec Format profile : [email protected] Format settings : CABAC / 4 Ref Frames Format settings, CABAC : Yes Format settings, Reference frames : 4 frames Codec ID : V_MPEG4/ISO/AVC Duration : 1 h 38 min Bit rate mode : Constant Bit rate : 9 434 kb/s Nominal bit rate : 10 000 kb/s Width : 1 920 pixels Height : 1 080 pixels Display aspect ratio : 16:9 Frame rate mode : Constant Frame rate : 23.976 (24000/1001) FPS Color space : YUV Chroma subsampling : 4:2:0 Bit depth : 8 bits Scan type : Progressive Bits/(Pixel*Frame) : 0.190 Stream size : 6.51 GiB (98%) Language : English Default : Yes Forced : No Color range : Limited Color primaries : BT.709 Transfer characteristics : BT.709 Matrix coefficients : BT.709 Audio ID : 2 Format : E-AC-3 Format/Info : Enhanced AC-3 Commercial name : Dolby Digital Plus Codec ID : A_EAC3 Duration : 1 h 38 min Bit rate mode : Constant Bit rate : 224 kb/s Channel(s) : 2 channels Channel layout : L R Sampling rate : 48.0 kHz Frame rate : 31.250 FPS (1536 SPF) Compression mode : Lossy Stream size : 158 MiB (2%) Language : English Service kind : Complete Main Default : Yes Forced : No Text #1 ID : 3 Format : UTF-8 Codec ID : S_TEXT/UTF8 Codec ID/Info : UTF-8 Plain Text Duration : 1 h 36 min Bit rate : 98 b/s Count of elements : 1731 Stream size : 69.7 KiB (0%) Language : English Default : No Forced : No Text #2 ID : 4 Format : UTF-8 Codec ID : S_TEXT/UTF8 Codec ID/Info : UTF-8 Plain Text Duration : 1 h 36 min Bit rate : 99 b/s Count of elements : 1781 Stream size : 71.0 KiB (0%) Title : SDH Language : English Default : No Forced : No

Videos Add media

Unmasking Jihadi John: Anatomy of a Terrorist (2019) | Official Trailer | HBO
Unmasking Jihadi John: Anatomy of a Terrorist (201...