Uncut Gems

Uncut Gems

Hot
MavoyMavoy   February 20, 2019  
Add to list
Uncut Gems

Movie info

Title
Confirmed and upcoming movie titles only! Search before adding to avoid dupes.
Uncut Gems
Year
The year the movie is set to be released.
2019
Genre
Pick one or multiple movie genres.
Cinema release
First cinema release date in any country.
December 13, 2019
Digital release
Official digital release date on services such as iTunes, Amazon, Netflix. It's the first known release date, without any country restriction. So if it's out on iTunes Russia first, this would be the digital release date.
January 31, 2020
Description
"Uncut Gems" is a new film from Safdie brothers, Josh and Benny, independent filmmakers best known for their 2017 critically acclaimed "Good Time". This film is said to be inspired by their father's work in the Manhattan Diamond Distric. Jonah Hill was originally reported to star, but he was replaced by Adam Sandler. Comedian isn't surely the most surprising addition to the cast already featuring likes of Idina Menzel, The Weeknd, Trinidad James and Kevin Garnett. Lakeith Stanfield, Judd Hirsch and Pom Klementieff will also appear. Martin Scorsese is a co-producer of "Uncut Gams", which will be internationally distributed via Netflix. The picture is already filmed and it's rumoured to have a premiere at Cannes.
The film follows the story of a jewelry store owner Howard Ratner as he attempts to land the biggest score of his career while also dealing with other drama in his life. The fact that the movie is directed by the Safdie Brothers is reason enough to get everyone excited about this film. And it's set for a DVD screener this year.
Where you watch

Where you watch Email alert

The movie is online and reported below, Use the alert button to get notified when higher quality versions are available.

Download and stream reports

Can I download or stream Uncut Gems? Yes. Reports of pirated torrents and streams are available below.
When will Uncut Gems be available on digital platforms like iTunes or Amazon? It's set for a January 31, 2020 release. This likely includes iTunes and Amazon unless it is an exclusive Netflix, or similar, release. Physical versions on Blu-Ray or DVD will likely follow.

February 28, 2020
Uncut.Gems.2019.720p.BluRay.x264-YOL0W
Video and audio quality: 5/5 | Source: BluRay

Submitted by: Mr. Meeseeks | Trust Rank level: Supreme Member
Format: Torrent | Site: RARBG
Video ID : 1 Format : AVC Format/Info : Advanced Video Codec Format profile : High@L4.1 Format settings : CABAC / 8 Ref Frames Format settings, CABAC : Yes Format settings, Reference frames : 8 frames Codec ID : V_MPEG4/ISO/AVC Duration : 2 h 15 min Bit rate : 4 275 kb/s Width : 1 280 pixels Height : 536 pixels Display aspect ratio : 2.40:1 Frame rate mode : Constant Frame rate : 23.976 (24000/1001) FPS Color space : YUV Chroma subsampling : 4:2:0 Bit depth : 8 bits Scan type : Progressive Bits/(Pixel*Frame) : 0.260 Stream size : 4.03 GiB (74%) Writing library : x264 core 159 r2991 1771b55 Encoding settings : cabac=1 / ref=8 / deblock=1:-3:-3 / analyse=0x3:0x133 / me=umh / subme=7 / psy=1 / psy_rd=1.00:0.00 / mixed_ref=1 / me_range=16 / chroma_me=1 / trellis=2 / 8x8dct=1 / cqm=0 / deadzone=21,11 / fast_pskip=1 / chroma_qp_offset=-2 / threads=16 / lookahead_threads=2 / sliced_threads=0 / nr=0 / decimate=1 / interlaced=0 / bluray_compat=0 / constrained_intra=0 / bframes=3 / b_pyramid=2 / b_adapt=2 / b_bias=0 / direct=3 / weightb=1 / open_gop=0 / weightp=2 / keyint=250 / keyint_min=23 / scenecut=40 / intra_refresh=0 / rc_lookahead=50 / rc=2pass / mbtree=1 / bitrate=4275 / ratetol=1.0 / qcomp=0.60 / qpmin=0 / qpmax=69 / qpstep=4 / cplxblur=20.0 / qblur=0.5 / ip_ratio=1.40 / aq=1:1.00 Language : English Default : Yes Forced : No Color range : Limited Matrix coefficients : BT.709 Audio ID : 2 Format : DTS Format/Info : Digital Theater Systems Codec ID : A_DTS Duration : 2 h 15 min Bit rate mode : Constant Bit rate : 1 509 kb/s Channel(s) : 6 channels Channel layout : C L R Ls Rs LFE Sampling rate : 48.0 kHz Frame rate : 93.750 FPS (512 SPF) Bit depth : 24 bits Compression mode : Lossy Stream size : 1.42 GiB (26%) Title : English Language : English Default : Yes Forced : No
January 31, 2020
Uncut Gems 2019 1080p NF WEB-DL DDP5 1 x264-NTG
Video and audio quality: 5/5 | Source: Official web stream

Submitted by: MindOfJigsaw | Trust Rank level: Standard member
Format: Official stream | Site: IPTorrents.com
December 16, 2019
Uncut-Gems-2019-DVDScr-x264-AAC
Video and audio quality: 4/5 | Source: Screener

Submitted by: Mavoy | Trust Rank level: Hero member
Format: Torrent | Site: 1337x
When I saw it, I really thought it's fake, but it looks like we got our first screener of the season. I'm not sure if it's actually Academy Award copy - the resolution is higher than your standard DVD screener, and it can't be online stream either (Netflix didn't even put up Uncut Gems yet). It could be a promotional copy for talk show or something like this. It's also not Hive, the source is anonymours for now. We will see if he/she's got more.

Videos Add media

Uncut Gems | Official Trailer HD | A24
Uncut Gems | Official Trailer HD | A24