Uncle Frank

Uncle Frank

Mr. MeeseeksMr. Meeseeks   December 01, 2020  
Add to list
Uncle Frank

Movie info

Title
Confirmed and upcoming movie titles only! Search before adding to avoid dupes.
Uncle Frank
Year
The year the movie is set to be released.
2020
Director
Alan Ball
Genre
Pick one or multiple movie genres.
Digital release
Official digital release date on services such as iTunes, Amazon, Netflix. It's the first known release date, without any country restriction. So if it's out on iTunes Russia first, this would be the digital release date.
November 25, 2020
Description
Starring Paul Bettany, Sophia Lillis, Peter Macdissi, Judy Greer, Steve Zahn, Lois Smith, Margo Martindale, and Stephen Root.
Where you watch

Where you watch Email alert

Yes, it is available and reported below. Use the alert button to get notified when higher quality versions are available.

Download and stream reports

Is there a Uncle Frank torrent? Yes. Reports are available below.
When will Uncle Frank be available on VOD? It's set for a November 25, 2020 release.

December 01, 2020
Uncle.Frank.2020.1080p.AMZN.WEBRip.DDP5.1.x264-TEPES
Video and audio quality: 5/5 | Source: Official web stream

Submitted by: Mr. Meeseeks | Trust Rank level: Supreme Member
Format: Torrent | Site: RARBG
Video ID : 1 Format : AVC Format/Info : Advanced Video Codec Format profile : High@L4 Format settings : CABAC / 4 Ref Frames Format settings, CABAC : Yes Format settings, Reference frames : 4 frames Codec ID : V_MPEG4/ISO/AVC Duration : 1 h 34 min Bit rate mode : Constant Bit rate : 9 184 kb/s Nominal bit rate : 10 000 kb/s Width : 1 920 pixels Height : 800 pixels Display aspect ratio : 2.40:1 Frame rate mode : Constant Frame rate : 23.976 (24000/1001) FPS Color space : YUV Chroma subsampling : 4:2:0 Bit depth : 8 bits Scan type : Progressive Bits/(Pixel*Frame) : 0.249 Stream size : 6.07 GiB (93%) Default : Yes Forced : No Color range : Limited Color primaries : BT.709 Transfer characteristics : BT.709 Matrix coefficients : BT.709 Audio ID : 2 Format : E-AC-3 Format/Info : Enhanced AC-3 Commercial name : Dolby Digital Plus Codec ID : A_EAC3 Duration : 1 h 34 min Bit rate mode : Constant Bit rate : 640 kb/s Channel(s) : 6 channels Channel layout : L R C LFE Ls Rs Sampling rate : 48.0 kHz Frame rate : 31.250 FPS (1536 SPF) Compression mode : Lossy Stream size : 433 MiB (7%) Language : English Service kind : Complete Main Default : Yes Forced : No Text #1 ID : 3 Format : UTF-8 Codec ID : S_TEXT/UTF8 Codec ID/Info : UTF-8 Plain Text Duration : 3 min 10 s Bit rate : 33 b/s Count of elements : 22 Stream size : 792 Bytes (0%) Title : Forced Language : English Default : No Forced : Yes

Videos Add media

Uncle Frank – Official Trailer | Prime Video
Uncle Frank – Official Trailer | Prime Video