'Twas The Fight Before Christmas

'Twas The Fight Before Christmas

Mr. MeeseeksMr. Meeseeks   November 11, 2021  
Add to list
'Twas The Fight Before Christmas

Movie info

Title
Confirmed and upcoming movie titles only! Search before adding to avoid dupes.
'Twas The Fight Before Christmas
Year
The year the movie is set to be released.
2021
Director
Becky Read
Genre
Pick one or multiple movie genres.
Digital release
Official digital release date on services such as iTunes, Amazon, Netflix. It's the first known release date, without any country restriction. So if it's out on iTunes Russia first, this would be the digital release date.
November 26, 2021
Description
Courtesy of Apple TV+, "'Twas The Fight Before Christmas" is a documentary film about a homeowners association that attempts to sue a man to prevent him from holding a Christmas light show at his home.
Where you watch

Where you watch Email alert

Yes, it is available and reported below. Use the alert button to get notified when higher quality versions are available.

Download and stream reports

Is there a 'Twas The Fight Before Christmas torrent? Yes. Reports are available below.
When will 'Twas The Fight Before Christmas be available on VOD? It's set for a November 26, 2021 release.

November 25, 2021
The.Fight.Before.Christmas.2021.1080p.WEB.h264-RUMOUR
Video and audio quality: 5/5 | Source: Official web stream

Submitted by: Mr. Meeseeks | Trust Rank level: Supreme Member
Format: Torrent | Site: RARBG
Video ID : 1 Format : AVC Format/Info : Advanced Video Codec Format profile : High@L4 Format settings : CABAC / 5 Ref Frames Format settings, CABAC : Yes Format settings, Reference frames : 5 frames Codec ID : V_MPEG4/ISO/AVC Duration : 1 h 31 min Bit rate : 9 931 kb/s Width : 1 920 pixels Height : 818 pixels Display aspect ratio : 2.35:1 Frame rate mode : Constant Frame rate : 23.976 (24000/1001) FPS Color space : YUV Chroma subsampling : 4:2:0 Bit depth : 8 bits Scan type : Progressive Bits/(Pixel*Frame) : 0.264 Stream size : 6.35 GiB (93%) Language : English Default : Yes Forced : No Color range : Limited Color primaries : BT.709 Transfer characteristics : BT.709 Matrix coefficients : BT.709 Audio ID : 2 Format : E-AC-3 JOC Format/Info : Enhanced AC-3 with Joint Object Coding Commercial name : Dolby Digital Plus with Dolby Atmos Codec ID : A_EAC3 Duration : 1 h 31 min Bit rate mode : Constant Bit rate : 768 kb/s Channel(s) : 6 channels Channel layout : L R C LFE Ls Rs Sampling rate : 48.0 kHz Frame rate : 31.250 FPS (1536 SPF) Compression mode : Lossy Stream size : 503 MiB (7%) Language : English Service kind : Complete Main Default : Yes Forced : No Complexity index : 16 Number of dynamic objects : 15 Bed channel count : 1 channel Bed channel configuration : LFE

Videos Add media

’Twas The Fight Before Christmas — Official Trailer | Apple TV+
’Twas The Fight Before Christmas — Official Tr...