Trail of Ashes

Trail of Ashes

Mr. MeeseeksMr. Meeseeks   November 26, 2020  
Add to list
Trail of Ashes

Movie info

Title
Confirmed and upcoming movie titles only! Search before adding to avoid dupes.
Trail of Ashes
Year
The year the movie is set to be released.
2020
Genre
Pick one or multiple movie genres.
Digital release
Official digital release date on services such as iTunes, Amazon, Netflix. It's the first known release date, without any country restriction. So if it's out on iTunes Russia first, this would be the digital release date.
December 01, 2020
Description
Starring Héctor Escudero, Cecilia Arguelles, Arturo Lizardi, Jasmin Sanabria, Migdalia Rosario, and Carlos Miranda.
Where you watch

Where you watch Email alert

Yes, it is available and reported below. Use the alert button to get notified when higher quality versions are available.

Download and stream reports

Is there a Trail of Ashes torrent? Yes. Reports are available below.
When will Trail of Ashes be available on VOD? It's set for a December 01, 2020 release.

December 01, 2020
Trail.of.Ashes.2020.1080p.WEB-DL.DD5.1.H264-FGT
Video and audio quality: 5/5 | Source: Official web stream

Submitted by: Mr. Meeseeks | Trust Rank level: Supreme Member
Format: Torrent | Site: RARBG
MediaInfo « Video ID : 1 Format : AVC Format/Info : Advanced Video Codec Format profile : High@L4 Format settings : CABAC / 5 Ref Frames Format settings, CABAC : Yes Format settings, Reference frames : 5 frames Codec ID : V_MPEG4/ISO/AVC Duration : 1 h 38 min Bit rate : 4 636 kb/s Width : 1 916 pixels Height : 812 pixels Display aspect ratio : 2.35:1 Frame rate mode : Constant Frame rate : 23.976 (24000/1001) FPS Color space : YUV Chroma subsampling : 4:2:0 Bit depth : 8 bits Scan type : Progressive Bits/(Pixel*Frame) : 0.124 Stream size : 3.19 GiB (92%) Title : Trail.of.Ashes.2020.1080p.WEB-DL.DD5.1.H264-FGT Language : English Default : Yes Forced : No Color range : Limited Color primaries : BT.709 Transfer characteristics : BT.709 Matrix coefficients : BT.709 Audio ID : 2 Format : AC-3 Format/Info : Audio Coding 3 Commercial name : Dolby Digital Codec ID : A_AC3 Duration : 1 h 38 min Bit rate mode : Constant Bit rate : 384 kb/s Channel(s) : 6 channels Channel layout : L R C LFE Ls Rs Sampling rate : 48.0 kHz Frame rate : 31.250 FPS (1536 SPF) Compression mode : Lossy Stream size : 271 MiB (8%) Title : Trail.of.Ashes.2020.1080p.WEB-DL.DD5.1.H264-FGT Language : English Service kind : Complete Main Default : Yes Forced : No

Videos Add media

Trail of Ashes Official Trailer
Trail of Ashes Official Trailer