Traffik

Traffik

Scott PilgrimScott Pilgrim   December 28, 2017  
News (0)
Add to list
Traffik
cover

Movie info

TITLE
Confirmed and upcoming movie titles only! Search before adding to avoid dupes.
YEAR
The year the movie is set to be released.
2018
DIRECTOR
GENRE
Pick one or multiple movie genres.
DESCRIPTION
A couple on a romantic trip in the mountains gets caught up in a sex trafficking ring.
WHERE YOU WATCH

Where you watch Email alert

The movie is online and reported below, Use the alert button to get notified when higher quality versions are available.

Reports

May 11, 2018
Traffik 2018 HDCAM ENG x264 AAC
Video and audio quality: 1/5 | Source: Camera

Submitted by: Mr. Meeseeks | Trust Rank level: Legend Member
Format: Torrent | Site: 1337x
General Format : Matroska Format version : Version 4 / Version 2 File size : 878 MiB Duration : 1 h 32 min Overall bit rate : 1 330 kb/s Video ID : 1 Format : AVC Format/Info : Advanced Video Codec Format profile : [email protected] Format settings : CABAC / 4 Ref Frames Format settings, CABAC : Yes Format settings, RefFrames : 4 frames Codec ID : V_MPEG4/ISO/AVC Duration : 1 h 32 min Bit rate : 1 200 kb/s Width : 720 pixels Height : 362 pixels Display aspect ratio : 1.989 Frame rate mode : Constant Frame rate : 29.970 (30000/1001) FPS Color space : YUV Chroma subsampling : 4:2:0 Bit depth : 8 bits Scan type : Progressive Bits/(Pixel*Frame) : 0.154 Stream size : 793 MiB (90%) Writing library : x264 core 155 r2893 b00bcaf Default : Yes Forced : No Audio ID : 2 Format : AAC Format/Info : Advanced Audio Codec Format profile : HE-AAC / LC Format settings : Explicit Codec ID : A_AAC-2 Duration : 1 h 32 min Bit rate : 127 kb/s Channel(s) : 2 channels Channel positions : Front: L R Sampling rate : 44.1 kHz / 22.05 kHz Frame rate : 21.533 FPS (1024 SPF) Compression mode : Lossy Stream size : 83.7 MiB (10%) Language : English Default : Yes Forced : No

Videos Add media

Traffik Trailer #1 (2018) | Movieclips Trailers
Traffik Trailer #1 (2018) | Movieclips Trailers

Movie News

There are no member news items for this movie.
To write a comment please register or