Tough Guy: The Bob Probert Story

Tough Guy: The Bob Probert Story

Hot
J. OrgusJ. Orgus   December 16, 2018  
News (0)
Add to list
MV5BYTY3ZWM0Y2QtMjg2My00YjFjLWI2NDItMjM1NGM0MmZlNDQ2XkEyXkFqcGdeQXVyNTk0ODg2OTM@._V1_SY1000_CR0,0,772,1000_AL_.jpg

Movie info

TITLE
Confirmed and upcoming movie titles only! Search before adding to avoid dupes.
YEAR
The year the movie is set to be released.
2018
DIRECTOR
GENRE
Pick one or multiple movie genres.
CINEMA
First cinema release date in any country.
December 14, 2018
DESCRIPTION
An intimate portrayal of the life and career of legendary NHL enforcer Bob Probert.
WHERE YOU WATCH

Where you watch Email alert

The movie is online and reported below, Use the alert button to get notified when higher quality versions are available.

Reports

June 07, 2019
Tough.Guy.The.Bob.Probert.Story.2018.1080p.AMZN.WEBRip.DDP5.1.x264-NTb
Video and audio quality: 5/5 | Source: Official web stream

Submitted by: Mr. Meeseeks | Trust Rank level: Supreme Member
Format: Torrent | Site: RARBG
Video ID : 1 Format : AVC Format/Info : Advanced Video Codec Format profile : [email protected] Format settings : CABAC / 4 Ref Frames Format settings, CABAC : Yes Format settings, ReFrames : 4 frames Codec ID : V_MPEG4/ISO/AVC Duration : 1 h 32 min Bit rate mode : Constant Bit rate : 8 477 kb/s Nominal bit rate : 10 000 kb/s Width : 1 920 pixels Height : 1 080 pixels Display aspect ratio : 16:9 Frame rate mode : Constant Frame rate : 23.976 (24000/1001) FPS Color space : YUV Chroma subsampling : 4:2:0 Bit depth : 8 bits Scan type : Progressive Bits/(Pixel*Frame) : 0.171 Stream size : 5.48 GiB (93%) Default : Yes Forced : No Color range : Limited Color primaries : BT.709 Transfer characteristics : BT.709 Matrix coefficients : BT.709 Audio ID : 2 Format : E-AC-3 Format/Info : Enhanced AC-3 Commercial name : Dolby Digital Plus Codec ID : A_EAC3 Duration : 1 h 32 min Bit rate mode : Constant Bit rate : 640 kb/s Channel(s) : 6 channels Channel layout : L R C LFE Ls Rs Sampling rate : 48.0 kHz Frame rate : 31.250 FPS (1536 SPF) Compression mode : Lossy Stream size : 424 MiB (7%) Language : English Service kind : Complete Main Default : Yes Forced : No Text ID : 3 Format : UTF-8 Codec ID : S_TEXT/UTF8 Codec ID/Info : UTF-8 Plain Text Duration : 1 h 30 min Bit rate : 65 b/s Count of elements : 1181 Stream size : 43.3 KiB (0%) Title : SDH Language : English Default : No Forced : No

Videos Add media

TOUGH GUY: THE BOB PROBERT STORY | Official HD Trailer (2018) | DOC | Film Threat Trailers
TOUGH GUY: THE BOB PROBERT STORY | Official HD Tra...

Movie News

There are no member news items for this movie.
To write a comment please register or