Tomb Raider

Tomb Raider

Hot
Mr. MeeseeksMr. Meeseeks   December 11, 2017  
News (0)
Add to list
Tomb Raider

Movie info

TITLE
Confirmed and upcoming movie titles only! Search before adding to avoid dupes.
YEAR
The year the movie is set to be released.
2018
DIRECTOR
GENRE
Pick one or multiple movie genres.
CINEMA
First cinema release date in any country.
March 16, 2018
DESCRIPTION
Back in April of 2015, Warner Bros. Studios confirmed that they had signed Academy award-winning actress Alicia Vikander to star as Lara Croft in their adaptation of the video game franchise “Tomb Raider”. It will be the first English language film from Norwegian director Roar Uthaug. Eventually it was revealed that Dominic West would portray the love interest and Walton Goggins would be the main antagonist. Throughout a six month period in 2017, principal photography took place in Cape Town, South Africa. It will be released in IMAX and 3D on March 16th, 2018. Although nothing has been officially confirmed, producer Adrian Askarieh stated in an interview they hope to eventually create a cinematic universe featuring various video game adaptations owned by Warner Bros.
WHERE YOU WATCH

Where you watch Email alert

The movie is online and reported below, Use the alert button to get notified when higher quality versions are available.

Reports

June 01, 2018
Tomb.Raider.2018.1080p.BluRay.x264.DTS-HDC
Video and audio quality: 5/5 | Source: BluRay

Submitted by: Mr. Meeseeks | Trust Rank level: Legend Member
Format: Torrent | Site: RARBG
Video ID : 1 Format : AVC Format/Info : Advanced Video Codec Format profile : [email protected] Format settings : CABAC / 5 Ref Frames Format settings, CABAC : Yes Format settings, ReFrames : 5 frames Codec ID : V_MPEG4/ISO/AVC Duration : 1 h 57 min Bit rate : 15.0 Mb/s Width : 1 920 pixels Height : 800 pixels Display aspect ratio : 2.40:1 Frame rate mode : Constant Frame rate : 23.976 (24000/1001) FPS Color space : YUV Chroma subsampling : 4:2:0 Bit depth : 8 bits Scan type : Progressive Bits/(Pixel*Frame) : 0.407 Stream size : 12.3 GiB (91%) Title : Tomb.Raider.2018.1080p.BluRay.x264.DTS-HDC Writing library : x264 core 152 r2851kMod ba24899 Language : English Default : Yes Forced : No Audio ID : 2 Format : DTS Format/Info : Digital Theater Systems Codec ID : A_DTS Duration : 1 h 57 min Bit rate mode : Constant Bit rate : 1 509 kb/s Channel(s) : 6 channels Channel positions : Front: L C R, Side: L R, LFE Sampling rate : 48.0 kHz Frame rate : 93.750 FPS (512 SPF) Bit depth : 24 bits Compression mode : Lossy Stream size : 1.24 GiB (9%) Title : Tomb.Raider.2018.1080p.BluRay.x264.DTS-HDC Language : English Default : Yes Forced : No Text ID : 3 Format : UTF-8 Codec ID : S_TEXT/UTF8 Codec ID/Info : UTF-8 Plain Text Duration : 1 h 56 min Bit rate : 29 b/s Count of elements : 866 Stream size : 24.9 KiB (0%) Language : English Default : Yes Forced : No
May 29, 2018
Tomb.Raider.2018.1080p.WEB-DL.H264.AC3-EVO
Video and audio quality: 5/5 | Source: Official web stream

Submitted by: armiestice | Trust Rank level: Standard member
Format: Torrent | Site: Torrenting
1916x800 iTunes RIP
March 18, 2018
Tomb Raider 2018 720p FULL HDCAM X264 HQMic-CPG
Video and audio quality: 1/5 | Source: Camera

Submitted by: Costa | Trust Rank level: Professional
Format: Torrent | Site: 1337x
3.3 GB | 1 h 52 min | 4 000 kb/s | 1280x720 | MP3, 2 channels, 192 kbps

Videos Add media

TOMB RAIDER Trailer (Extended) 2018
TOMB RAIDER Trailer (Extended) 2018

Movie News

There are no member news items for this movie.
To write a comment please register or