Timmy Failure: Mistakes Were Made

Timmy Failure: Mistakes Were Made

Hot
Mr. MeeseeksMr. Meeseeks   February 01, 2018  
Add to list
Timmy Failure: Mistakes Were Made

Movie info

Title
Confirmed and upcoming movie titles only! Search before adding to avoid dupes.
Timmy Failure: Mistakes Were Made
Year
The year the movie is set to be released.
2020
Director
Genre
Pick one or multiple movie genres.
Digital release
Official digital release date on services such as iTunes, Amazon, Netflix. It's the first known release date, without any country restriction. So if it's out on iTunes Russia first, this would be the digital release date.
February 07, 2020
Description
Tom McCarthy has signed on to direct Disney’s film treatment of the childrens book series “Timmy Failure”. McCarthy penned the screenplay alongside Stephan Pastis, creator of the books.

This will be an exclusive release with the new streaming platform, Disney+. Starring Winslow Fegley, Ophelia Lovibond, Kyle Bornheimer, Wallace Shawn, Chloe Coleman, Nicole Anthony, and Craig Robinson.
Where you watch

Where you watch Email alert

Yes, it is available and reported below. Use the alert button to get notified when higher quality versions are available.

Download and stream reports

Can I download or stream Timmy Failure: Mistakes Were Made? Yes. Reports of pirated torrents and streams are available below.
When will Timmy Failure: Mistakes Were Made be available on digital platforms like iTunes or Amazon? It's set for a February 07, 2020 release. This likely includes iTunes and Amazon unless it is an exclusive Netflix, or similar, release. Physical versions on Blu-Ray or DVD will likely follow.

February 08, 2020
Timmy.Failure.Mistakes.Were.Made.2020.WEBRip.x264-ION10
Video and audio quality: 5/5 | Source: Official web stream

Submitted by: Mr. Meeseeks | Trust Rank level: Supreme Member
Format: Torrent | Site: RARBG
Video ID : 1 Format : AVC Format/Info : Advanced Video Codec Format profile : High@L3.1 Format settings : CABAC / 5 Ref Frames Format settings, CABAC : Yes Format settings, Reference frames : 5 frames Codec ID : avc1 Codec ID/Info : Advanced Video Coding Duration : 1 h 39 min Bit rate : 1 100 kb/s Width : 720 pixels Height : 302 pixels Display aspect ratio : 2.40:1 Original display aspect ratio : 2.40:1 Frame rate mode : Constant Frame rate : 23.976 (24000/1001) FPS Color space : YUV Chroma subsampling : 4:2:0 Bit depth : 8 bits Scan type : Progressive Bits/(Pixel*Frame) : 0.211 Stream size : 783 MiB (81%) Title : RARBG - Timmy.Failure.Mistakes.Were.Made.2020.WEBRip.x264-ION10 Writing library : x264 core 152 r2851M ba24899 Encoding settings : cabac=1 / ref=5 / deblock=1:-1:-1 / analyse=0x3:0x113 / me=umh / subme=9 / psy=1 / psy_rd=1.00:0.15 / mixed_ref=1 / me_range=16 / chroma_me=1 / trellis=2 / 8x8dct=1 / cqm=0 / deadzone=21,11 / fast_pskip=1 / chroma_qp_offset=-3 / threads=16 / lookahead_threads=1 / sliced_threads=0 / nr=0 / decimate=1 / interlaced=0 / bluray_compat=0 / constrained_intra=0 / bframes=3 / b_pyramid=2 / b_adapt=2 / b_bias=0 / direct=3 / weightb=1 / open_gop=0 / weightp=2 / keyint=250 / keyint_min=23 / scenecut=40 / intra_refresh=0 / rc_lookahead=50 / rc=2pass / mbtree=1 / bitrate=1100 / ratetol=1.0 / qcomp=0.60 / qpmin=0 / qpmax=69 / qpstep=4 / cplxblur=20.0 / qblur=0.5 / ip_ratio=1.40 / aq=1:1.00 Encoded date : UTC 2020-02-07 09:16:01 Tagged date : UTC 2020-02-07 09:16:01 Codec configuration box : avcC Audio ID : 2 Format : AAC LC Format/Info : Advanced Audio Codec Low Complexity Codec ID : mp4a-40-2 Duration : 1 h 39 min Bit rate mode : Constant Bit rate : 256 kb/s Channel(s) : 2 channels Channel layout : L R Sampling rate : 48.0 kHz Frame rate : 46.875 FPS (1024 SPF) Compression mode : Lossy Stream size : 182 MiB (19%) Title : RARBG - Timmy.Failure.Mistakes.Were.Made.2020.WEBRip.x264-ION10 Language : English Default : Yes Alternate group : 1 Encoded date : UTC 2020-02-07 09:16:01 Tagged date : UTC 2020-02-07 09:16:01

Videos Add media

Timmy Failure: Mistakes Were Made | Official Trailer | Disney+
Timmy Failure: Mistakes Were Made | Official Trail...