The Young Cannibals

The Young Cannibals

Hot
Mr. MeeseeksMr. Meeseeks   March 30, 2018  
Add to list
The Young Cannibals

Movie info

Title
Confirmed and upcoming movie titles only! Search before adding to avoid dupes.
The Young Cannibals
Year
The year the movie is set to be released.
2018
Director
Kris Carr, & Sam Fowler
Genre
Pick one or multiple movie genres.
Description
A group of friends are tricked into eating hamburgers made of human flesh, summoning an evil entity out for blood.
Where you watch

Where you watch Email alert

Yes, it is available and reported below. Use the alert button to get notified when higher quality versions are available.

Download and stream reports

Is there a The Young Cannibals torrent? Yes. Reports are available below.
When will The Young Cannibals be available on digital platforms like iTunes, Amazon or Apple+? As of now, there's no release date announced. This includes iTunes, Amazon, Blu-Ray and DVD.

October 05, 2020
The.Young.Cannibals.2019.1080p.AMZN.WEBRip.DDP5.1.x264-NTG
Video and audio quality: 5/5 | Source: Official web stream

Submitted by: Mr. Meeseeks | Trust Rank level: Supreme Member
Format: Torrent | Site: RARBG
Video ID : 1 Format : AVC Format/Info : Advanced Video Codec Format profile : High@L4 Format settings : CABAC / 4 Ref Frames Format settings, CABAC : Yes Format settings, Reference frames : 4 frames Codec ID : V_MPEG4/ISO/AVC Duration : 1 h 39 min Bit rate mode : Constant Bit rate : 7 896 kb/s Nominal bit rate : 10 000 kb/s Width : 1 920 pixels Height : 800 pixels Display aspect ratio : 2.40:1 Frame rate mode : Constant Frame rate : 23.976 (24000/1001) FPS Color space : YUV Chroma subsampling : 4:2:0 Bit depth : 8 bits Scan type : Progressive Bits/(Pixel*Frame) : 0.214 Stream size : 5.49 GiB (92%) Default : Yes Forced : No Color range : Limited Color primaries : BT.709 Transfer characteristics : BT.709 Matrix coefficients : BT.709 Audio ID : 2 Format : E-AC-3 Format/Info : Enhanced AC-3 Commercial name : Dolby Digital Plus Codec ID : A_EAC3 Duration : 1 h 39 min Bit rate mode : Constant Bit rate : 640 kb/s Channel(s) : 6 channels Channel layout : L R C LFE Ls Rs Sampling rate : 48.0 kHz Frame rate : 31.250 FPS (1536 SPF) Compression mode : Lossy Stream size : 456 MiB (7%) Language : English Service kind : Complete Main Default : Yes Forced : No