The Way Back

The Way Back

Hot
Mr. MeeseeksMr. Meeseeks   November 14, 2019  
Add to list
The Way Back

Movie info

Title
Confirmed and upcoming movie titles only! Search before adding to avoid dupes.
The Way Back
Year
The year the movie is set to be released.
2020
Genre
Pick one or multiple movie genres.
Cinema release
First cinema release date in any country.
March 06, 2020
Digital release
Official digital release date on services such as iTunes, Amazon, Netflix. It's the first known release date, without any country restriction. So if it's out on iTunes Russia first, this would be the digital release date.
March 24, 2020
Description
Starring Ben Affleck, Janina Gavankar, Al Madrigal, Brandon Wilson, Hayes MacArthur, and Rachael Carpani.

Also known as "Finding The Way Back".
Where you watch

Where you watch Email alert

Yes. The movie is online and reported below, Use the alert button to get notified when higher quality versions are available.

Download and stream reports

Can I download or stream The Way Back? Yes. Reports of pirated torrents and streams are available below.
When will The Way Back be available on digital platforms like iTunes or Amazon? It's set for a March 24, 2020 release. This likely includes iTunes and Amazon unless it is an exclusive Netflix, or similar, release. Physical versions on Blu-Ray or DVD will likely follow.

May 13, 2020
The.Way.Back.2020.1080p.BluRay.x264.DTS-HD.MA.7.1-FGT
Video and audio quality: 5/5 | Source: BluRay

Submitted by: Mr. Meeseeks | Trust Rank level: Supreme Member
Format: Torrent | Site: RARBG
Video ID : 1 Format : AVC Format/Info : Advanced Video Codec Format profile : High@L4.1 Format settings : CABAC / 4 Ref Frames Format settings, CABAC : Yes Format settings, Reference frames : 4 frames Codec ID : V_MPEG4/ISO/AVC Duration : 1 h 48 min Bit rate : 11.5 Mb/s Width : 1 920 pixels Height : 804 pixels Display aspect ratio : 2.40:1 Frame rate mode : Constant Frame rate : 23.976 (24000/1001) FPS Color space : YUV Chroma subsampling : 4:2:0 Bit depth : 8 bits Scan type : Progressive Bits/(Pixel*Frame) : 0.311 Stream size : 8.71 GiB (73%) Title : The.Way.Back.2020.1080p.BluRay.x264.DTS-HD.MA.7.1-FGT Writing library : x264 core 148 r2748 97eaef2 Encoding settings : cabac=1 / ref=4 / deblock=1:-2:-2 / analyse=0x3:0x113 / me=umh / subme=9 / psy=1 / psy_rd=1.00:0.15 / mixed_ref=1 / me_range=16 / chroma_me=1 / trellis=2 / 8x8dct=1 / cqm=0 / deadzone=21,11 / fast_pskip=1 / chroma_qp_offset=-3 / threads=72 / lookahead_threads=3 / sliced_threads=0 / nr=0 / decimate=1 / interlaced=0 / bluray_compat=0 / constrained_intra=0 / bframes=3 / b_pyramid=2 / b_adapt=1 / b_bias=0 / direct=3 / weightb=1 / open_gop=0 / weightp=2 / keyint=250 / keyint_min=25 / scenecut=40 / intra_refresh=0 / rc_lookahead=50 / rc=2pass / mbtree=1 / bitrate=11500 / ratetol=1.0 / qcomp=0.60 / qpmin=0 / qpmax=69 / qpstep=4 / cplxblur=20.0 / qblur=0.5 / vbv_maxrate=31250 / vbv_bufsize=31250 / nal_hrd=none / filler=0 / ip_ratio=1.40 / aq=1:1.00 Language : English Default : Yes Forced : No Audio ID : 2 Format : DTS XLL Format/Info : Digital Theater Systems Commercial name : DTS-HD Master Audio Codec ID : A_DTS Duration : 1 h 48 min Bit rate mode : Variable Bit rate : 4 172 kb/s Channel(s) : 8 channels Channel layout : C L R LFE Lb Rb Lss Rss Sampling rate : 48.0 kHz Frame rate : 93.750 FPS (512 SPF) Bit depth : 24 bits Compression mode : Lossless Stream size : 3.16 GiB (26%) Title : The.Way.Back.2020.1080p.BluRay.x264.DTS-HD.MA.7.1-FGT Language : English Default : Yes Forced : No
March 24, 2020
The.Way.Back.2020.1080p.WEB-DL.H264.AC3-EVO
Video and audio quality: 5/5 | Source: Foreign web stream

Submitted by: adam7 | Trust Rank level: Newbie
Format: Torrent | Site: piratebay
General Filename.......: The.Way.Back.2020.1080p.WEB-DL.DD5.1.H264-FGT.mkv FileSize.......: 3.75 GiB Duration.......: 1 h 48 min Video Codec..........: AVC [email protected] Resolution.....: 1916x800 Aspect ratio...: 2.40:1 Bit rate.......: 4 473 kb/s Frame rate.....: 23.976 fps Audio Language.......: English Channels.......: 6 CH Format.........: Dolby Digital Bit rate.......: 384 kb/s
March 07, 2020
The.Way.Back.2020.HDCAM.850MB.c1nem4.x264-SUNSCREEN[TGx]
Video and audio quality: 1/5 | Source: Camera

Submitted by: Costa | Trust Rank level: Hero member
Format: Torrent | Site: torrentgalaxy
Please be advised this upload has ads cut or watermarked into the video.

Videos Add media

THE WAY BACK - Official Trailer
THE WAY BACK - Official Trailer