The Wave

The Wave

Hot
Mr. MeeseeksMr. Meeseeks   September 20, 2019  
Add to list
The Wave

Movie info

Title
Confirmed and upcoming movie titles only! Search before adding to avoid dupes.
The Wave
Year
The year the movie is set to be released.
2019
Director
Gille Klabin
Genre
Pick one or multiple movie genres.
Description
Starring Justin Long, Donald Faison, Tommy Flanagan, Sheila Vand, Katia Winter, Ronnie Gene Blevins, and Bill Sage.
Where you watch

Where you watch Email alert

Yes, it is available and reported below. Use the alert button to get notified when higher quality versions are available.

Download and stream reports

Is there a The Wave torrent? Yes. Reports are available below.
When will The Wave be available on digital platforms like iTunes, Amazon or Apple+? As of now, there's no release date announced. This includes iTunes, Amazon, Blu-Ray and DVD.

September 10, 2020
The.Wave.2019.1080p.BluRay.x264.DTS-HD.MA.5.1-NOGRP
Video and audio quality: 5/5 | Source: BluRay

Submitted by: Mr. Meeseeks | Trust Rank level: Supreme Member
Format: Torrent | Site: RARBG
Video ID : 1 Format : AVC Format/Info : Advanced Video Codec Format profile : High@L4.1 Format settings : CABAC / 5 Ref Frames Format settings, CABAC : Yes Format settings, Reference frames : 5 frames Codec ID : V_MPEG4/ISO/AVC Duration : 1 h 27 min Bit rate : 13.3 Mb/s Width : 1 920 pixels Height : 804 pixels Display aspect ratio : 2.40:1 Frame rate mode : Constant Frame rate : 23.976 (24000/1001) FPS Color space : YUV Chroma subsampling : 4:2:0 Bit depth : 8 bits Scan type : Progressive Bits/(Pixel*Frame) : 0.359 Stream size : 8.12 GiB (86%) Writing library : x264 core 161 r3018+53 ~ Encoded by Mocunaman in Portugal Encoding settings : cabac=1 / ref=5 / deblock=1:-3:-3 / analyse=0x3:0x113 / me=umh / subme=10 / psy=1 / fade_compensate=0.00 / psy_rd=1.00:0.00 / mixed_ref=1 / me_range=32 / chroma_me=1 / trellis=2 / 8x8dct=1 / cqm=0 / deadzone=21,11 / fast_pskip=0 / chroma_qp_offset=-2 / threads=25 / lookahead_threads=4 / sliced_threads=0 / nr=0 / decimate=0 / interlaced=0 / bluray_compat=0 / constrained_intra=0 / fgo=0 / bframes=8 / b_pyramid=2 / b_adapt=2 / b_bias=0 / direct=3 / weightb=1 / open_gop=0 / weightp=2 / keyint=250 / keyint_min=23 / scenecut=40 / intra_refresh=0 / rc_lookahead=60 / rc=crf / mbtree=0 / crf=16.5000 / qcomp=0.65 / qpmin=0:0:0 / qpmax=69:69:69 / qpstep=4 / vbv_maxrate=62500 / vbv_bufsize=78125 / crf_max=0.0 / nal_hrd=none / filler=0 / ip_ratio=1.30 / pb_ratio=1.20 / aq=3:0.85 / aq-sensitivity=10.00 / aq-factor=1.00:1.00:1.00 / aq2=0 / aq3=0 / zones=0,600,crf=15.5/7432,30907,crf=15.5/40363,41222,crf=15.5/47534,50146,crf=15.5/57778,62866,crf=15.5/65482,76834,crf=15.5/82069,95341,crf=15.5/96764,98132,crf=15.5/114044,115604,crf=15.5/117044,119252,crf=15.5 Language : English Default : Yes Forced : No Color range : Limited Color primaries : BT.709 Transfer characteristics : BT.709 Matrix coefficients : BT.709 Audio ID : 2 ID in the original source medium : 4353 (0x1101) Format : DTS XLL Format/Info : Digital Theater Systems Commercial name : DTS-HD Master Audio Codec ID : A_DTS Duration : 1 h 27 min Bit rate mode : Variable Bit rate : 2 048 kb/s Channel(s) : 6 channels Channel layout : C L R Ls Rs LFE Sampling rate : 48.0 kHz Frame rate : 93.750 FPS (512 SPF) Bit depth : 16 bits Compression mode : Lossless Stream size : 1.25 GiB (13%) Language : English Default : Yes Forced : No Original source medium : Blu-ray
January 17, 2020
The.Wave.2020.V2.1080p.WEB-DL.H264.AC3-EVO
Video and audio quality: 5/5 | Source: Official web stream

Submitted by: Ivana 🌿 | Trust Rank level: Supreme Member
Format: Torrent | Site: TorrentGalaxy
Duration: 1h 27min Resolution: 1920x1080 Language: English

Videos Add media

THE WAVE Official Trailer (2020) Justin Long, Sci-Fi Movie HD
THE WAVE Official Trailer (2020) Justin Long, Sci-...
The Wave Festival Teaser 2019
The Wave Festival Teaser 2019