Dolittle

Dolittle

Hot
MavoyMavoy   February 11, 2019  
Add to list
Dolittle

Movie info

Title
Confirmed and upcoming movie titles only! Search before adding to avoid dupes.
Dolittle
Year
The year the movie is set to be released.
2020
Genre
Pick one or multiple movie genres.
Cinema release
First cinema release date in any country.
January 17, 2020
Digital release
Official digital release date on services such as iTunes, Amazon, Netflix. It's the first known release date, without any country restriction. So if it's out on iTunes Russia first, this would be the digital release date.
March 24, 2020
Description
Another adaptation of Hugh Lofting's popular children book, about a physician who discovers he can talk to animals. After Tony Stark and Sherlock Holmes, this seems like another showdown for Robert Downey Jr., who will play a title doctor - if it succeeds, it'll probably receive more than one sequel. Huge cast is also featuring Antonio Banderas, Michael Sheen, Jim Broadbent and a voice cast of animals with John Cena, Marion Cotillard, Carmen Ejogo, Ralph Fiennes, Selena Gomez, Tom Holland, Rami Malek, Kumail Nanjiani, Craig Robinson, Octavia Spencer, Emma Thompson and Frances de la Tour.
Where you watch

Where you watch Email alert

Yes, it is available and reported below. Use the alert button to get notified when higher quality versions are available.

Download and stream reports

Is there a Dolittle torrent? Yes. Reports are available below.
When will Dolittle be available on VOD? It's set for a March 24, 2020 release.

April 13, 2020
Dolittle.2020.1080p.BluRay.x264.DTS-HD.MA.7.1-FGT
Video and audio quality: 5/5 | Source: BluRay

Submitted by: Mr. Meeseeks | Trust Rank level: Supreme Member
Format: Torrent | Site: RARBG
Video ID : 1 Format : AVC Format/Info : Advanced Video Codec Format profile : High@L4.1 Format settings : CABAC / 4 Ref Frames Format settings, CABAC : Yes Format settings, Reference frames : 4 frames Codec ID : V_MPEG4/ISO/AVC Duration : 1 h 41 min Bit rate : 8 616 kb/s Width : 1 920 pixels Height : 1 040 pixels Display aspect ratio : 1.85:1 Frame rate mode : Constant Frame rate : 23.976 (24000/1001) FPS Color space : YUV Chroma subsampling : 4:2:0 Bit depth : 8 bits Scan type : Progressive Bits/(Pixel*Frame) : 0.180 Stream size : 6.10 GiB (68%) Title : Dolittle.2020.1080p.BluRay.x264.DTS-HD.MA.7.1-FGT Writing library : x264 core 159 r2991 1771b55 Encoding settings : cabac=1 / ref=4 / deblock=1:-3:-3 / analyse=0x3:0x133 / me=umh / subme=7 / psy=1 / psy_rd=1.00:0.00 / mixed_ref=1 / me_range=16 / chroma_me=1 / trellis=2 / 8x8dct=1 / cqm=0 / deadzone=21,11 / fast_pskip=1 / chroma_qp_offset=-2 / threads=16 / lookahead_threads=2 / sliced_threads=0 / nr=0 / decimate=1 / interlaced=0 / bluray_compat=0 / constrained_intra=0 / bframes=3 / b_pyramid=2 / b_adapt=2 / b_bias=0 / direct=3 / weightb=1 / open_gop=0 / weightp=2 / keyint=250 / keyint_min=23 / scenecut=40 / intra_refresh=0 / rc_lookahead=50 / rc=2pass / mbtree=1 / bitrate=8616 / ratetol=1.0 / qcomp=0.60 / qpmin=0 / qpmax=69 / qpstep=4 / cplxblur=20.0 / qblur=0.5 / ip_ratio=1.40 / aq=1:1.00 Language : English Default : Yes Forced : No Color range : Limited Matrix coefficients : BT.709 Audio ID : 2 Format : DTS XLL Format/Info : Digital Theater Systems Commercial name : DTS-HD Master Audio Codec ID : A_DTS Duration : 1 h 41 min Bit rate mode : Variable Bit rate : 3 958 kb/s Channel(s) : 8 channels Channel layout : C L R LFE Lb Rb Lss Rss Sampling rate : 48.0 kHz Frame rate : 93.750 FPS (512 SPF) Bit depth : 24 bits Compression mode : Lossless Stream size : 2.80 GiB (31%) Title : Dolittle.2020.1080p.BluRay.x264.DTS-HD.MA.7.1-FGT Language : English Default : Yes Forced : No Text #1 ID : 3 Format : UTF-8 Codec ID : S_TEXT/UTF8 Codec ID/Info : UTF-8 Plain Text Duration : 1 h 32 min Bit rate : 62 b/s Count of elements : 1498 Stream size : 42.7 KiB (0%) Title : English-SRT Language : English Default : Yes Forced : No Text #2 ID : 4 Format : PGS Muxing mode : zlib Codec ID : S_HDMV/PGS Codec ID/Info : Picture based subtitle format used on BDs/HD-DVDs Duration : 1 h 32 min Bit rate : 53.7 kb/s Count of elements : 3750 Stream size : 35.6 MiB (0%) Title : English-PGS Language : English Default : No Forced : No Text #3 ID : 5 Format : PGS Muxing mode : zlib Codec ID : S_HDMV/PGS Codec ID/Info : Picture based subtitle format used on BDs/HD-DVDs Duration : 1 h 40 min Bit rate : 35.1 kb/s Count of elements : 2794 Stream size : 25.2 MiB (0%) Title : Spanish-PGS Language : Spanish Default : No Forced : No Text #4 ID : 6 Format : PGS Muxing mode : zlib Codec ID : S_HDMV/PGS Codec ID/Info : Picture based subtitle format used on BDs/HD-DVDs Duration : 1 h 40 min Bit rate : 36.8 kb/s Count of elements : 2782 Stream size : 26.4 MiB (0%) Title : French-PGS Language : French Default : No Forced : No
March 23, 2020
Dolittle.2020.1080p.WEB-DL.H264.AC3-EVO
Video and audio quality: 5/5 | Source: Official web stream

Submitted by: Ivana 🌿 | Trust Rank level: Supreme Member
Format: Torrent | Site: TorrentGalaxy
Duration: 1h 41min Resolution: 1916x1036 Language: English
February 07, 2020
Dolittle.2019.1080p.HDRip.X264.AC3-EVO
Video and audio quality: 4/5 | Source: Official web stream

Submitted by: Mavoy | Trust Rank level: Hero member
Format: Torrent | Site: 1337x
Container = Matroska (mkv) Duration = 01:29:47.692 Filesize = 4 GiB Overall bitrate = 5 635 kb/s ViDEO Codec info = AVC High@L4.1 | V_MPEG4/ISO/AVC Resolution = 1920x1040 Display AR = 1.846 | 1.85:1 Bitrate = 5 244 kb/s Framerate = CFR 59.940 Color space = YUV Chroma subsampling = 4:2:0 Encoder = x264 - core 142 r2479 dd79a61 AUDiO Codec info = AC-3 | A_AC3 Channels = 2 Bitrate = CBR 384 kb/s Samplerate = 48.0 kHz Language = English
February 06, 2020
Dolittle.2020.720p.HDTC.900MB.c1nem4.x264-BONSAI[TGx]
Video and audio quality: 2/5 | Source: Camera with line audio

Submitted by: Costa | Trust Rank level: Legend Member
Format: Torrent | Site: torrentgalaxy
Please be advised this upload has ads cut or watermarked into the video.
January 10, 2020
Dolittle.2020.720p.HDCAM.900MB.getb8.x264-BONSAI[TGx]
Video and audio quality: 1/5 | Source: Camera

Submitted by: Costa | Trust Rank level: Legend Member
Format: Torrent | Site: torrentgalaxy
Please be advised this upload has ads cut or watermarked into the video.

Videos Add media

Dolittle - "Official Trailer"
Dolittle - "Official Trailer"