The Unfamiliar

The Unfamiliar

Mr. MeeseeksMr. Meeseeks   July 27, 2020  
Add to list
The Unfamiliar

Movie info

Title
Confirmed and upcoming movie titles only! Search before adding to avoid dupes.
The Unfamiliar
Year
The year the movie is set to be released.
2020
Director
Henk Pretorius
Genre
Pick one or multiple movie genres.
Digital release
Official digital release date on services such as iTunes, Amazon, Netflix. It's the first known release date, without any country restriction. So if it's out on iTunes Russia first, this would be the digital release date.
August 21, 2020
Description
Starring Jemima West, Christopher Dane, Rebecca Hanssen, Harry McMillan-Hunt, Rachel Lin, and Tori Butler-Hart.
Where you watch

Where you watch Email alert

Yes, it is available and reported below. Use the alert button to get notified when higher quality versions are available.

Download and stream reports

Is there a The Unfamiliar torrent? Yes. Reports are available below.
When will The Unfamiliar be available on VOD? It's set for a August 21, 2020 release.

August 21, 2020
The.Unfamiliar.2020.1080p.AMZN.WEBRip.DDP5.1.x264-NTG
Video and audio quality: 5/5 | Source: Official web stream

Submitted by: Mr. Meeseeks | Trust Rank level: Supreme Member
Format: Torrent | Site: RARBG
Video ID : 1 Format : AVC Format/Info : Advanced Video Codec Format profile : High@L4 Format settings : CABAC / 4 Ref Frames Format settings, CABAC : Yes Format settings, Reference frames : 4 frames Codec ID : V_MPEG4/ISO/AVC Duration : 1 h 28 min Bit rate mode : Constant Bit rate : 10 000 kb/s Width : 1 920 pixels Height : 800 pixels Display aspect ratio : 2.40:1 Frame rate mode : Constant Frame rate : 23.976 (24000/1001) FPS Color space : YUV Chroma subsampling : 4:2:0 Bit depth : 8 bits Scan type : Progressive Bits/(Pixel*Frame) : 0.272 Stream size : 6.07 GiB (94%) Default : Yes Forced : No Color range : Limited Color primaries : BT.709 Transfer characteristics : BT.709 Matrix coefficients : BT.709 Audio ID : 2 Format : E-AC-3 Format/Info : Enhanced AC-3 Commercial name : Dolby Digital Plus Codec ID : A_EAC3 Duration : 1 h 28 min Bit rate mode : Constant Bit rate : 640 kb/s Channel(s) : 6 channels Channel layout : L R C LFE Ls Rs Sampling rate : 48.0 kHz Frame rate : 31.250 FPS (1536 SPF) Compression mode : Lossy Stream size : 407 MiB (6%) Language : English Service kind : Complete Main Default : Yes Forced : No Text #1 ID : 3 Format : UTF-8 Codec ID : S_TEXT/UTF8 Codec ID/Info : UTF-8 Plain Text Duration : 1 h 27 min Bit rate : 32 b/s Count of elements : 662 Stream size : 20.6 KiB (0%) Language : English Default : No Forced : No Text #2 ID : 4 Format : UTF-8 Codec ID : S_TEXT/UTF8 Codec ID/Info : UTF-8 Plain Text Duration : 1 h 28 min Bit rate : 36 b/s Count of elements : 835 Stream size : 23.8 KiB (0%) Title : SDH Language : English Default : No Forced : No

Videos Add media

THE UNFAMILIAR Official Trailer (2020) Horror Movie HD
THE UNFAMILIAR Official Trailer (2020) Horror Movi...