The Tracker

The Tracker

Mr. MeeseeksMr. Meeseeks   July 13, 2019  
Add to list
The Tracker

Movie info

TITLE
Confirmed and upcoming movie titles only! Search before adding to avoid dupes.
The Tracker
YEAR
The year the movie is set to be released.
2019
GENRE
Pick one or multiple movie genres.
CINEMA
First cinema release date in any country.
August 09, 2019
DESCRIPTION
Starring Dolph Lundgren, Cosimo Fusco, Anna Falchi, Marta Gastini, Bruno Bilotta, and Marco Mazzoli.
WHERE YOU WATCH

Where you watch Email alert

The movie is online and reported below, Use the alert button to get notified when higher quality versions are available.

Reports

Is The Tracker available online? Yes. Reports of pirated torrents and streams are available below.
When will The Tracker be available on digital platforms like iTunes or Amazon? As of now, there's no release data announced. This includes iTunes, Amazon, Blu-Ray and DVD.

August 09, 2019
The.Tracker.2019.1080p.AMZN.WEBRip.DDP5.1.x264-NTG
Video and audio quality: 5/5 | Source: Official web stream

Submitted by: Mr. Meeseeks | Trust Rank level: Supreme Member
Format: Torrent | Site: RARBG
Video ID : 1 Format : AVC Format/Info : Advanced Video Codec Format profile : [email protected] Format settings : CABAC / 4 Ref Frames Format settings, CABAC : Yes Format settings, Reference frames : 4 frames Codec ID : V_MPEG4/ISO/AVC Duration : 1 h 27 min Bit rate mode : Constant Bit rate : 6 089 kb/s Nominal bit rate : 10 000 kb/s Width : 1 920 pixels Height : 816 pixels Display aspect ratio : 2.35:1 Frame rate mode : Constant Frame rate : 23.976 (24000/1001) FPS Color space : YUV Chroma subsampling : 4:2:0 Bit depth : 8 bits Scan type : Progressive Bits/(Pixel*Frame) : 0.162 Stream size : 3.71 GiB (90%) Default : Yes Forced : No Color range : Limited Color primaries : BT.709 Transfer characteristics : BT.709 Matrix coefficients : BT.709 Audio ID : 2 Format : E-AC-3 Format/Info : Enhanced AC-3 Commercial name : Dolby Digital Plus Codec ID : A_EAC3 Duration : 1 h 27 min Bit rate mode : Constant Bit rate : 640 kb/s Channel(s) : 6 channels Channel layout : L R C LFE Ls Rs Sampling rate : 48.0 kHz Frame rate : 31.250 FPS (1536 SPF) Compression mode : Lossy Stream size : 399 MiB (10%) Language : English Service kind : Complete Main Default : Yes Forced : No Text #1 ID : 3 Format : UTF-8 Codec ID : S_TEXT/UTF8 Codec ID/Info : UTF-8 Plain Text Duration : 1 h 20 min Bit rate : 25 b/s Count of elements : 644 Stream size : 15.0 KiB (0%) Language : English Default : No Forced : No Text #2 ID : 4 Format : UTF-8 Codec ID : S_TEXT/UTF8 Codec ID/Info : UTF-8 Plain Text Duration : 1 h 20 min Bit rate : 31 b/s Count of elements : 794 Stream size : 18.8 KiB (0%) Title : SDH Language : English Default : No Forced : No

Videos Add media

THE TRACKER - In Select Theaters and On Demand August 9
THE TRACKER - In Select Theaters and On Demand Aug...