The Tomorrow Man

The Tomorrow Man

Mr. MeeseeksMr. Meeseeks   February 03, 2019  
Add to list
The Tomorrow Man

Movie info

TITLE
Confirmed and upcoming movie titles only! Search before adding to avoid dupes.
The Tomorrow Man
YEAR
The year the movie is set to be released.
2019
DIRECTOR
GENRE
Pick one or multiple movie genres.
CINEMA
First cinema release date in any country.
May 17, 2019
DIGITAL RELEASE
Official digital release date on services such as iTunes, Amazon, Netflix. It's the first known release date, without any country restriction. So if it's out on iTunes Russia first, this would be the digital release date.
August 20, 2019
DESCRIPTION
Starring John Lithgow, Blythe Danner, Katie Aselton, and Sophie Thatcher.
WHERE YOU WATCH

Where you watch Email alert

The movie is online and reported below, Use the alert button to get notified when higher quality versions are available.

Reports

Is The Tomorrow Man available online? Yes. Reports of pirated torrents and streams are available below.
When will The Tomorrow Man be available on digital platforms like iTunes or Amazon? It's set for a August 20, 2019 release. This likely includes iTunes and Amazon unless it is an exclusive Netflix, or similar, release. Physical versions on Blu-Ray or DVD will likely follow.

August 20, 2019
The.Tomorrow.Man.2019.1080p.WEB-DL.DD5.1.H264-FGT
Video and audio quality: 5/5 | Source: Official web stream

Submitted by: Mr. Meeseeks | Trust Rank level: Supreme Member
Format: Torrent | Site: RARBG
Video ID : 1 Format : AVC Format/Info : Advanced Video Codec Format profile : [email protected] Format settings : CABAC / 5 Ref Frames Format settings, CABAC : Yes Format settings, Reference frames : 5 frames Codec ID : V_MPEG4/ISO/AVC Duration : 1 h 35 min Bit rate : 4 557 kb/s Width : 1 916 pixels Height : 794 pixels Display aspect ratio : 2.40:1 Frame rate mode : Constant Frame rate : 23.976 (23976/1000) FPS Color space : YUV Chroma subsampling : 4:2:0 Bit depth : 8 bits Scan type : Progressive Bits/(Pixel*Frame) : 0.125 Stream size : 3.03 GiB (92%) Title : The.Tomorrow.Man.2019.1080p.WEB-DL.DD5.1.H264-FGT Language : English Default : Yes Forced : No Color range : Limited Color primaries : BT.709 Transfer characteristics : BT.709 Matrix coefficients : BT.709 Audio ID : 2 Format : AC-3 Format/Info : Audio Coding 3 Commercial name : Dolby Digital Codec ID : A_AC3 Duration : 1 h 35 min Bit rate mode : Constant Bit rate : 384 kb/s Channel(s) : 6 channels Channel layout : L R C LFE Ls Rs Sampling rate : 48.0 kHz Frame rate : 31.250 FPS (1536 SPF) Bit depth : 16 bits Compression mode : Lossy Stream size : 262 MiB (8%) Title : The.Tomorrow.Man.2019.1080p.WEB-DL.DD5.1.H264-FGT Language : English Service kind : Complete Main Default : Yes Forced : No Text ID : 3 Format : UTF-8 Codec ID : S_TEXT/UTF8 Codec ID/Info : UTF-8 Plain Text Duration : 1 h 30 min Bit rate : 60 b/s Count of elements : 1044 Stream size : 40.6 KiB (0%) Language : English Default : Yes Forced : No