The Tale

The Tale

Hot
Mr. MeeseeksMr. Meeseeks   January 22, 2018  
Add to list
The Tale

Movie info

TITLE
Confirmed and upcoming movie titles only! Search before adding to avoid dupes.
The Tale
YEAR
The year the movie is set to be released.
2018
DIRECTOR
GENRE
Pick one or multiple movie genres.
CINEMA
First cinema release date in any country.
May 26, 2018
DESCRIPTION
The new feature film by American directerJennifer Fox, “The Tale”, quickly became one of the standouts of the weekend at the Sundance Film Festival. Touting a top-notch ensemble including Laura Dern, Ellen Burstyn, Elizabeth Debicki, Jason Ritter, Frances Conroy, John Heard, and the rapper Common.
WHERE YOU WATCH

Where you watch Email alert

The movie is online and reported below, Use the alert button to get notified when higher quality versions are available.

Reports

Is The Tale available online? Yes. Reports of pirated torrents and streams are available below.
When will The Tale be available on digital platforms like iTunes or Amazon? As of now, there's no release data announced. This includes iTunes, Amazon, Blu-Ray and DVD.

June 16, 2019
The.Tale.2018.LiMiTED.1080p.BluRay.x264-VETO
Video and audio quality: 5/5 | Source: BluRay

Submitted by: Mr. Meeseeks | Trust Rank level: Supreme Member
Format: Torrent | Site: RARBG
Video ID : 1 Format : AVC Format/Info : Advanced Video Codec Format profile : [email protected] Format settings : CABAC / 4 Ref Frames Format settings, CABAC : Yes Format settings, ReFrames : 4 frames Codec ID : V_MPEG4/ISO/AVC Duration : 1 h 54 min Bit rate : 8 036 kb/s Width : 1 920 pixels Height : 1 040 pixels Display aspect ratio : 1.85:1 Frame rate mode : Constant Frame rate : 24.000 FPS Color space : YUV Chroma subsampling : 4:2:0 Bit depth : 8 bits Scan type : Progressive Bits/(Pixel*Frame) : 0.168 Stream size : 6.43 GiB (84%) Writing library : x264 core 157 r2969 d4099dd Encoding settings : cabac=1 / ref=4 / deblock=1:-1:-1 / analyse=0x3:0x133 / me=umh / subme=8 / psy=1 / psy_rd=1.00:0.15 / mixed_ref=1 / me_range=16 / chroma_me=1 / trellis=1 / 8x8dct=1 / cqm=0 / deadzone=21,11 / fast_pskip=0 / chroma_qp_offset=-4 / threads=24 / lookahead_threads=4 / sliced_threads=0 / nr=0 / decimate=1 / interlaced=0 / bluray_compat=0 / constrained_intra=0 / bframes=3 / b_pyramid=2 / b_adapt=2 / b_bias=0 / direct=3 / weightb=1 / open_gop=0 / weightp=2 / keyint=240 / keyint_min=23 / scenecut=40 / intra_refresh=0 / rc_lookahead=50 / rc=2pass / mbtree=1 / bitrate=8036 / ratetol=1.0 / qcomp=0.60 / qpmin=10 / qpmax=69 / qpstep=4 / cplxblur=20.0 / qblur=0.5 / ip_ratio=1.40 / aq=1:1.00 Language : English Default : Yes Forced : No Audio ID : 2 Format : DTS Format/Info : Digital Theater Systems Codec ID : A_DTS Duration : 1 h 54 min Bit rate mode : Constant Bit rate : 1 509 kb/s Channel(s) : 6 channels Channel layout : C L R Ls Rs LFE Sampling rate : 48.0 kHz Frame rate : 93.750 FPS (512 SPF) Bit depth : 24 bits Compression mode : Lossy Stream size : 1.21 GiB (16%) Language : English Default : Yes Forced : No Menu 00:00:00.000 : en:00:00:00.000 00:02:34.458 : en:00:02:34.458 00:05:52.542 : en:00:05:52.542 00:10:49.500 : en:00:10:49.500 00:20:02.458 : en:00:20:02.458 00:27:22.042 : en:00:27:22.042 00:35:30.750 : en:00:35:30.750 00:42:35.292 : en:00:42:35.292 00:49:01.750 : en:00:49:01.750 00:56:43.958 : en:00:56:43.958 01:02:18.917 : en:01:02:18.917 01:08:50.792 : en:01:08:50.792 01:19:56.583 : en:01:19:56.583 01:23:05.292 : en:01:23:05.292 01:27:37.333 : en:01:27:37.333 01:32:53.167 : en:01:32:53.167 01:40:33.583 : en:01:40:33.583 01:48:43.250 : en:01:48:43.250
May 27, 2018
The.Tale.2018.HDRip.XviD.AC3-EVO
Video and audio quality: 5/5 | Source: Official web stream

Submitted by: Mr. Meeseeks | Trust Rank level: Supreme Member
Format: Torrent | Site: TorrentingMe
ViDEO: 1400 Kbps -2 Passes RESOLUTiON: 720x400 RUNTiME: 1h 54m 43s SUBTiTLES: No. AUDiO: 384 Kbps AC3 5.1 LANGUAGE: ENGLiSH ENCODER: DdHD