The Super Bob Einstein Movie

The Super Bob Einstein Movie

Hot
Mr. MeeseeksMr. Meeseeks   January 06, 2022  
Add to list
The Super Bob Einstein Movie

Movie info

Title
Confirmed and upcoming movie titles only! Search before adding to avoid dupes.
The Super Bob Einstein Movie
Year
The year the movie is set to be released.
2021
Director
Danny Gold
Genre
Pick one or multiple movie genres.
Digital release
Official digital release date on services such as iTunes, Amazon, Netflix. It's the first known release date, without any country restriction. So if it's out on iTunes Russia first, this would be the digital release date.
December 28, 2021
Description
Courtesy of HBO, "The Super Bob Einstein Movie" is a documentary film about the life and career of actor/comedian Bob Einstein who passed away in 2019. Known for his alter ego Super Dave Osborne, as well as his roles in popular sitcoms "Curb Your Enthusiasm'", and "Arrested Development".

Featuring interviews with Jerry Seinfeld, Larry David, Susie Essman, David Letterman, Sarah Silverman, Norman Lear, Cheryl Hines, Jimmy Kimmel, Steve Martin, Patton Oswalt, Rob Reiner, JB Smoove, his brother Albert Brooks, his brother Cliff Einstein, his wife Berta, and his daughter Erin.
Where you watch

Where you watch Email alert

Yes, it is available and reported below. Use the alert button to get notified when higher quality versions are available.

Download and stream reports

Is there a The Super Bob Einstein Movie torrent? Yes. Reports are available below.
When will The Super Bob Einstein Movie be available on VOD? It's set for a December 28, 2021 release.

January 06, 2022
The.Super.Bob.Einstein.Movie.2021.1080p.WEB.H264-BIGDOC
Video and audio quality: 5/5 | Source: Official web stream

Submitted by: Mr. Meeseeks | Trust Rank level: Supreme Member
Format: Torrent | Site: RARBG
Video ID : 1 Format : AVC Format/Info : Advanced Video Codec Format profile : High@L4 Format settings : CABAC / 4 Ref Frames Format settings, CABAC : Yes Format settings, Reference frames : 4 frames Codec ID : V_MPEG4/ISO/AVC Duration : 1 h 15 min Bit rate mode : Variable Bit rate : 8 250 kb/s Maximum bit rate : 12.4 Mb/s Width : 1 920 pixels Height : 1 080 pixels Display aspect ratio : 16:9 Frame rate mode : Constant Frame rate : 23.976 (24000/1001) FPS Color space : YUV Chroma subsampling : 4:2:0 Bit depth : 8 bits Scan type : Progressive Bits/(Pixel*Frame) : 0.166 Stream size : 4.23 GiB (94%) Writing library : x264 core 157 r2965 861cec4 Encoding settings : cabac=1 / ref=4 / deblock=1:0:0 / analyse=0x3:0x113 / me=hex / subme=7 / psy=1 / psy_rd=1.00:0.00 / mixed_ref=1 / me_range=16 / chroma_me=1 / trellis=1 / 8x8dct=1 / cqm=0 / deadzone=21,11 / fast_pskip=1 / chroma_qp_offset=-2 / threads=34 / lookahead_threads=5 / sliced_threads=0 / nr=0 / decimate=1 / interlaced=0 / bluray_compat=0 / constrained_intra=0 / bframes=3 / b_pyramid=2 / b_adapt=1 / b_bias=0 / direct=1 / weightb=1 / open_gop=0 / weightp=2 / keyint=96 / keyint_min=96 / scenecut=40 / intra_refresh=0 / rc_lookahead=40 / rc=2pass / mbtree=1 / bitrate=8250 / ratetol=1.0 / qcomp=0.60 / qpmin=0 / qpmax=69 / qpstep=4 / cplxblur=20.0 / qblur=0.5 / vbv_maxrate=12375 / vbv_bufsize=6187 / nal_hrd=vbr / filler=0 / ip_ratio=1.40 / aq=1:1.00 Default : Yes Forced : No Color range : Limited Color primaries : BT.709 Transfer characteristics : BT.709 Matrix coefficients : BT.709 Audio ID : 2 Format : AC-3 Format/Info : Audio Coding 3 Commercial name : Dolby Digital Codec ID : A_AC3 Duration : 1 h 15 min Bit rate mode : Constant Bit rate : 384 kb/s Channel(s) : 6 channels Channel layout : L R C LFE Ls Rs Sampling rate : 48.0 kHz Frame rate : 31.250 FPS (1536 SPF) Compression mode : Lossy Stream size : 206 MiB (4%) Language : English Service kind : Complete Main Default : Yes Forced : No Text ID : 3 Format : UTF-8 Codec ID : S_TEXT/UTF8 Codec ID/Info : UTF-8 Plain Text Title : English Language : English Default : No Forced : No

Videos Add media

The Super Bob Einstein Movie | Official Trailer | HBO
The Super Bob Einstein Movie | Official Trailer | ...