The Secret Garden

The Secret Garden

Hot
Mr. MeeseeksMr. Meeseeks   February 09, 2020  
Add to list
The Secret Garden

Movie info

Title
Confirmed and upcoming movie titles only! Search before adding to avoid dupes.
The Secret Garden
Year
The year the movie is set to be released.
2020
Director
Genre
Pick one or multiple movie genres.
Cinema release
First cinema release date in any country.
August 14, 2020
Description
Starring Dixie Egerickx, Colin Firth, Maeve Dermody, Julie Walters, Jemma Powell, Amir Wilson, Sonia Goswami, and Edan Hayhurst.
Where you watch

Where you watch Email alert

Yes, it is available and reported below. Use the alert button to get notified when higher quality versions are available.

Download and stream reports

Can I download or stream The Secret Garden? Yes. Reports of pirated torrents and streams are available below.
When will The Secret Garden be available on digital platforms like iTunes, Amazon or Apple+? As of now, there's no release date announced. This includes iTunes, Amazon, Blu-Ray and DVD.

August 07, 2020
The.Secret.Garden.2020.1080p.WEBRip.DD5.1.x264-CM
Video and audio quality: 5/5 | Source: Official web stream

Submitted by: Mr. Meeseeks | Trust Rank level: Supreme Member
Format: Torrent | Site: RARBG
Video ID : 1 Format : AVC Format/Info : Advanced Video Codec Format profile : High@L4 Format settings : CABAC / 2 Ref Frames Format settings, CABAC : Yes Format settings, Reference frames : 2 frames Codec ID : V_MPEG4/ISO/AVC Duration : 1 h 39 min Bit rate : 6 245 kb/s Width : 1 920 pixels Height : 1 080 pixels Display aspect ratio : 16:9 Frame rate mode : Constant Frame rate : 23.976 (24000/1001) FPS Color space : YUV Chroma subsampling : 4:2:0 Bit depth : 8 bits Scan type : Progressive Bits/(Pixel*Frame) : 0.126 Stream size : 4.35 GiB (94%) Writing library : x264 core 155 r2901 7d0ff22 Language : English Default : Yes Forced : No Color range : Limited Color primaries : BT.709 Transfer characteristics : BT.709 Matrix coefficients : BT.709 Audio ID : 2 Format : AC-3 Format/Info : Audio Coding 3 Commercial name : Dolby Digital Codec ID : A_AC3 Duration : 1 h 39 min Bit rate mode : Constant Bit rate : 384 kb/s Channel(s) : 6 channels Channel layout : L R C LFE Ls Rs Sampling rate : 48.0 kHz Frame rate : 31.250 FPS (1536 SPF) Bit depth : 16 bits Compression mode : Lossy Stream size : 274 MiB (6%) Language : English Service kind : Complete Main Default : Yes Forced : No Text ID : 3 Format : UTF-8 Codec ID : S_TEXT/UTF8 Codec ID/Info : UTF-8 Plain Text Duration : 1 h 32 min Bit rate : 37 b/s Count of elements : 840 Stream size : 25.7 KiB (0%) Language : English Default : Yes Forced : No

Videos Add media

THE SECRET GARDEN - Main Trailer - From the producer of Harry Potter and Paddington
THE SECRET GARDEN - Main Trailer - From the produc...
THE SECRET GARDEN - Teaser Trailer - From the Producer of Harry Potter & Paddington
THE SECRET GARDEN - Teaser Trailer - From the Prod...