The Ruthless

The Ruthless

Hot
Mr. MeeseeksMr. Meeseeks   April 04, 2019  
Add to list
The Ruthless

Movie info

Title
Confirmed and upcoming movie titles only! Search before adding to avoid dupes.
The Ruthless
Year
The year the movie is set to be released.
2019
Director
Renato De Maria
Genre
Pick one or multiple movie genres.
Cinema release
First cinema release date in any country.
April 08, 2019
Description
Starring Riccardo Scamarcio, Sara Serraiocco, Valentine Payen, Alessio Praticò, Marie-Ange Casta, Fulvio Milani, and Alessandro Tedeschi.
Where you watch

Where you watch Email alert

Yes, it is available and reported below. Use the alert button to get notified when higher quality versions are available.

Download and stream reports

Is there a The Ruthless torrent? Yes. Reports are available below.
When will The Ruthless be available on digital platforms like iTunes, Amazon or Apple+? As of now, there's no release date announced. This includes iTunes, Amazon, Blu-Ray and DVD.

June 14, 2019
The.Ruthless.2019.DUBBED.1080p.WEBRip.x264-RARBG
Video and audio quality: 5/5 | Source: Official web stream

Submitted by: Mr. Meeseeks | Trust Rank level: Supreme Member
Format: Torrent | Site: RARBG
Video ID : 1 Format : AVC Format/Info : Advanced Video Codec Format profile : High@L4.1 Format settings : CABAC / 4 Ref Frames Format settings, CABAC : Yes Format settings, ReFrames : 4 frames Codec ID : avc1 Codec ID/Info : Advanced Video Coding Duration : 1 h 51 min Bit rate : 2 500 kb/s Width : 1 920 pixels Height : 800 pixels Display aspect ratio : 2.40:1 Frame rate mode : Constant Frame rate : 25.000 FPS Color space : YUV Chroma subsampling : 4:2:0 Bit depth : 8 bits Scan type : Progressive Bits/(Pixel*Frame) : 0.065 Stream size : 1.94 GiB (92%) Writing library : x264 core 152 r2851M ba24899 Encoding settings : cabac=1 / ref=4 / deblock=1:-1:-1 / analyse=0x3:0x113 / me=umh / subme=9 / psy=1 / psy_rd=1.00:0.15 / mixed_ref=1 / me_range=24 / chroma_me=1 / trellis=2 / 8x8dct=1 / cqm=0 / deadzone=21,11 / fast_pskip=1 / chroma_qp_offset=-3 / threads=16 / lookahead_threads=4 / sliced_threads=0 / nr=0 / decimate=1 / interlaced=0 / bluray_compat=0 / constrained_intra=0 / bframes=3 / b_pyramid=2 / b_adapt=2 / b_bias=0 / direct=3 / weightb=1 / open_gop=0 / weightp=2 / keyint=250 / keyint_min=25 / scenecut=40 / intra_refresh=0 / rc_lookahead=50 / rc=2pass / mbtree=1 / bitrate=2500 / ratetol=1.0 / qcomp=0.60 / qpmin=0 / qpmax=69 / qpstep=4 / cplxblur=20.0 / qblur=0.5 / vbv_maxrate=31250 / vbv_bufsize=31250 / nal_hrd=none / filler=0 / ip_ratio=1.40 / aq=3:1.00 Encoded date : UTC 2019-06-14 07:25:45 Tagged date : UTC 2019-06-14 07:25:45 Codec configuration box : avcC Audio ID : 2 Format : AAC LC Format/Info : Advanced Audio Codec Low Complexity Codec ID : mp4a-40-2 Duration : 1 h 51 min Duration_LastFrame : -11 ms Bit rate mode : Constant Bit rate : 224 kb/s Channel(s) : 6 channels Channel layout : C L R Ls Rs LFE Sampling rate : 48.0 kHz Frame rate : 46.875 FPS (1024 SPF) Compression mode : Lossy Stream size : 178 MiB (8%) Language : English Default : Yes Alternate group : 1 Encoded date : UTC 2019-06-14 07:25:45 Tagged date : UTC 2019-06-14 07:25:45

Videos Add media

The Ruthless | Official Trailer [HD] | Netflix
The Ruthless | Official Trailer [HD] | Netflix