The Rhythm Section

The Rhythm Section

Hot
Ivana 🌿Ivana 🌿   March 01, 2019  
Add to list
The Rhythm Section

Movie info

Title
Confirmed and upcoming movie titles only! Search before adding to avoid dupes.
The Rhythm Section
Year
The year the movie is set to be released.
2020
Director
Genre
Pick one or multiple movie genres.
Cinema release
First cinema release date in any country.
January 30, 2020
Description
Starring Blake Lively, Jude Law, Max Casella, Daniel Mays, Richard Brake, Raza Jaffrey, Tawfeek Barhom, and Sterling K. Brown.
Where you watch

Where you watch Email alert

The movie is online and reported below, Use the alert button to get notified when higher quality versions are available.

Download and stream reports

Can I download or stream The Rhythm Section? Yes. Reports of pirated torrents and streams are available below.
When will The Rhythm Section be available on digital platforms like iTunes, Amazon or Apple+? As of now, there's no release date announced. This includes iTunes, Amazon, Blu-Ray and DVD.

April 19, 2020
The.Rhythm.Section.2020.1080p.BluRay.x264-YOL0W
Video and audio quality: 5/5 | Source: BluRay

Submitted by: Mr. Meeseeks | Trust Rank level: Supreme Member
Format: Torrent | Site: RARBG
Video ID : 1 Format : AVC Format/Info : Advanced Video Codec Format profile : High@L4.1 Format settings : CABAC / 5 Ref Frames Format settings, CABAC : Yes Format settings, Reference frames : 5 frames Codec ID : V_MPEG4/ISO/AVC Duration : 1 h 49 min Bit rate : 11.7 Mb/s Width : 1 920 pixels Height : 804 pixels Display aspect ratio : 2.40:1 Frame rate mode : Constant Frame rate : 23.976 (24000/1001) FPS Color space : YUV Chroma subsampling : 4:2:0 Bit depth : 8 bits Scan type : Progressive Bits/(Pixel*Frame) : 0.317 Stream size : 8.98 GiB (72%) Writing library : x264 core 160 r3000 33f9e14 Encoding settings : cabac=1 / ref=5 / deblock=1:-3:-3 / analyse=0x3:0x133 / me=umh / subme=9 / psy=1 / psy_rd=1.00:0.00 / mixed_ref=1 / me_range=32 / chroma_me=1 / trellis=2 / 8x8dct=1 / cqm=0 / deadzone=21,11 / fast_pskip=0 / chroma_qp_offset=-2 / threads=24 / lookahead_threads=2 / sliced_threads=0 / nr=0 / decimate=1 / interlaced=0 / bluray_compat=0 / constrained_intra=0 / bframes=3 / b_pyramid=2 / b_adapt=2 / b_bias=0 / direct=3 / weightb=1 / open_gop=0 / weightp=2 / keyint=250 / keyint_min=23 / scenecut=40 / intra_refresh=0 / rc=crf / mbtree=0 / crf=16.5 / qcomp=0.60 / qpmin=0 / qpmax=69 / qpstep=4 / ip_ratio=1.40 / pb_ratio=1.30 / aq=3:0.80 Default : Yes Forced : No Color range : Limited Matrix coefficients : BT.709 Audio ID : 2 Format : DTS XLL Format/Info : Digital Theater Systems Commercial name : DTS-HD Master Audio Codec ID : A_DTS Duration : 1 h 49 min Bit rate mode : Variable Bit rate : 4 533 kb/s Channel(s) : 8 channels Channel layout : C L R LFE Lb Rb Lss Rss Sampling rate : 48.0 kHz Frame rate : 93.750 FPS (512 SPF) Bit depth : 24 bits Compression mode : Lossless Stream size : 3.47 GiB (28%) Title : English Language : English Default : Yes Forced : No Text #1 ID : 3 Format : PGS Muxing mode : zlib Codec ID : S_HDMV/PGS Codec ID/Info : Picture based subtitle format used on BDs/HD-DVDs Duration : 1 h 42 min Bit rate : 18.2 kb/s Count of elements : 1522 Stream size : 13.4 MiB (0%) Language : English Default : No Forced : No Text #2 ID : 4 Format : PGS Muxing mode : zlib Codec ID : S_HDMV/PGS Codec ID/Info : Picture based subtitle format used on BDs/HD-DVDs Duration : 1 h 43 min Bit rate : 24.4 kb/s Count of elements : 2094 Stream size : 18.1 MiB (0%) Language : English Default : No Forced : No Text #3 ID : 5 Format : PGS Muxing mode : zlib Codec ID : S_HDMV/PGS Codec ID/Info : Picture based subtitle format used on BDs/HD-DVDs Duration : 1 h 48 min Bit rate : 18.6 kb/s Count of elements : 1590 Stream size : 14.5 MiB (0%) Language : Spanish Default : No Forced : No Text #4 ID : 6 Format : PGS Muxing mode : zlib Codec ID : S_HDMV/PGS Codec ID/Info : Picture based subtitle format used on BDs/HD-DVDs Duration : 1 h 48 min Bit rate : 18.8 kb/s Count of elements : 1582 Stream size : 14.6 MiB (0%) Language : French Default : No Forced : No
April 07, 2020
The Rhythm Section 2020 1080p WEB-DL H264 AC3-EVO
Video and audio quality: 4/5 | Source: Official web stream

Submitted by: Cupio Dissolvi | Trust Rank level: Standard member
Format: Official stream | Site: Rlsbb
Release Name: The.Rhythm.Section.2020.1080p.WEB-DL.H264.AC3-EVO Size: 3.87GB Video: MKV | 1920×1080 | 4 665 kb/s Audio: English | AC3 | 384 kb/s Runtime: 1 h 49 min Subtitles: N/A
February 14, 2020
The.Rhythm.Section.2020.720p.HDCAM.900MB.c1nem4.x264-BONSAI
Video and audio quality: 1/5 | Source: Camera

Submitted by: Mr. Meeseeks | Trust Rank level: Supreme Member
Format: Torrent | Site: TorrentGalaxy
Container = Matroska (mkv) Duration = 01:45:25.013 Filesize = 897 MiB Overall bitrate = 1 190 kb/s Video Codec info = AVC High@L3.1 | V_MPEG4/ISO/AVC Resolution = 1280x544 Display AR = 2.388 | 2.40:1 Bitrate = Framerate = VFR Color space = YUV Chroma subsampling = 4:2:0 Encoder = x264 - core 157 Audio Codec info = AAC | A_AAC-2 Channels = 2 Bitrate = Samplerate = 48.0 kHz Language = English
February 10, 2020
The.Rhythm.Section
Video and audio quality: 1/5 | Source: Camera

Submitted by: Costa | Trust Rank level: Hero member
Format: Torrent | Site: torrentgalaxy
Please be advised this upload has ads cut or watermarked into the video.

Videos Add media

The Rhythm Section (2020) - New Trailer - Paramount Pictures
The Rhythm Section (2020) - New Trailer - Paramoun...
The Rhythm Section - Official Trailer
The Rhythm Section - Official Trailer