The Red Sea Diving Resort

The Red Sea Diving Resort

Hot
Mr. MeeseeksMr. Meeseeks   July 17, 2019  
Add to list
The Red Sea Diving Resort

Movie info

TITLE
Confirmed and upcoming movie titles only! Search before adding to avoid dupes.
The Red Sea Diving Resort
YEAR
The year the movie is set to be released.
2019
DIRECTOR
GENRE
Pick one or multiple movie genres.
DIGITAL RELEASE
Official digital release date on services such as iTunes, Amazon, Netflix. It's the first known release date, without any country restriction. So if it's out on iTunes Russia first, this would be the digital release date.
July 31, 2019
DESCRIPTION
Starring Chris Evans, Michael Kenneth Williams, Haley Bennett, Alessandro Nivola, Michiel Huisman, Alex Hassell, Mark Ivanir, Greg Kinnear, and Ben Kingsley.
WHERE YOU WATCH

Where you watch Email alert

The movie is online and reported below, Use the alert button to get notified when higher quality versions are available.

Reports

Is The Red Sea Diving Resort available online? Yes. Reports of pirated torrents and streams are available below.
When will The Red Sea Diving Resort be available on digital platforms like iTunes or Amazon? It's set for a July 31, 2019 release. This likely includes iTunes and Amazon unless it is an exclusive Netflix, or similar, release. Physical versions on Blu-Ray or DVD will likely follow.

July 31, 2019
The.Red.Sea.Diving.Resort.2019.1080p.NF.WEBRip.DD5.1.x264-FGT
Video and audio quality: 5/5 | Source: Official web stream

Submitted by: Mr. Meeseeks | Trust Rank level: Supreme Member
Format: Torrent | Site: RARBG.com
Video ID : 1 Format : AVC Format/Info : Advanced Video Codec Format profile : [email protected] Format settings : CABAC / 4 Ref Frames Format settings, CABAC : Yes Format settings, Reference frames : 4 frames Codec ID : V_MPEG4/ISO/AVC Duration : 2 h 10 min Bit rate mode : Variable Bit rate : 4 601 kb/s Maximum bit rate : 20.0 Mb/s Width : 1 920 pixels Height : 1 080 pixels Display aspect ratio : 16:9 Frame rate mode : Constant Frame rate : 24.000 FPS Color space : YUV Chroma subsampling : 4:2:0 Bit depth : 8 bits Scan type : Progressive Bits/(Pixel*Frame) : 0.092 Stream size : 4.18 GiB (88%) Title : The.Red.Sea.Diving.Resort.2019.1080p.NF.WEBRip.DD5.1.x264-FGT Writing library : x264 core 148 r2715 7e75228 Encoding settings : cabac=1 / ref=4 / deblock=1:0:0 / analyse=0x3:0x111 / me=umh / subme=10 / psy=1 / psy_rd=1.00:0.00 / mixed_ref=1 / me_range=120 / chroma_me=1 / trellis=2 / 8x8dct=1 / cqm=0 / deadzone=21,11 / fast_pskip=1 / chroma_qp_offset=-2 / threads=6 / lookahead_threads=1 / sliced_threads=0 / nr=0 / decimate=1 / interlaced=0 / bluray_compat=0 / stitchable=1 / constrained_intra=0 / bframes=16 / b_pyramid=2 / b_adapt=2 / b_bias=0 / direct=3 / weightb=1 / open_gop=0 / weightp=2 / keyint=240 / keyint_min=121 / scenecut=0 / intra_refresh=0 / rc_lookahead=240 / rc=crf / mbtree=1 / crf=16.0 / qcomp=0.50 / qpmin=6 / qpmax=51 / qpstep=4 / vbv_maxrate=20000 / vbv_bufsize=25000 / crf_max=0.0 / nal_hrd=vbr / filler=0 / ip_ratio=1.40 / aq=1:0.80 Language : English Default : Yes Forced : No Audio ID : 2 Format : AC-3 Format/Info : Audio Coding 3 Commercial name : Dolby Digital Codec ID : A_AC3 Duration : 2 h 10 min Bit rate mode : Constant Bit rate : 640 kb/s Channel(s) : 6 channels Channel layout : L R C LFE Ls Rs Sampling rate : 48.0 kHz Frame rate : 31.250 FPS (1536 SPF) Bit depth : 16 bits Compression mode : Lossy Stream size : 596 MiB (12%) Title : The.Red.Sea.Diving.Resort.2019.1080p.NF.WEBRip.DD5.1.x264-FGT Language : English Service kind : Complete Main Default : Yes Forced : No Text #1 ID : 3 Format : UTF-8 Codec ID : S_TEXT/UTF8 Codec ID/Info : UTF-8 Plain Text Duration : 2 h 0 min Bit rate : 45 b/s Count of elements : 1458 Stream size : 40.1 KiB (0%) Title : English Language : English Default : No Forced : No Text #2 ID : 4 Format : UTF-8 Codec ID : S_TEXT/UTF8 Codec ID/Info : UTF-8 Plain Text Duration : 1 h 52 min Bit rate : 2 b/s Count of elements : 68 Stream size : 1.81 KiB (0%) Title : Off Language : English Default : No Forced : Yes Text #3 ID : 5 Format : UTF-8 Codec ID : S_TEXT/UTF8 Codec ID/Info : UTF-8 Plain Text Duration : 2 h 8 min Bit rate : 62 b/s Count of elements : 1269 Stream size : 58.5 KiB (0%) Title : Arabic Language : Arabic Default : No Forced : No Text #4 ID : 6 Format : UTF-8 Codec ID : S_TEXT/UTF8 Codec ID/Info : UTF-8 Plain Text Duration : 2 h 8 min Bit rate : 33 b/s Count of elements : 1194 Stream size : 31.1 KiB (0%) Title : Czech Language : Czech Default : No Forced : No Text #5 ID : 7 Format : UTF-8 Codec ID : S_TEXT/UTF8 Codec ID/Info : UTF-8 Plain Text Duration : 2 h 8 min Bit rate : 30 b/s Count of elements : 1048 Stream size : 28.9 KiB (0%) Title : Danish Language : Danish Default : No Forced : No Text #6 ID : 8 Format : UTF-8 Codec ID : S_TEXT/UTF8 Codec ID/Info : UTF-8 Plain Text Duration : 2 h 8 min Bit rate : 31 b/s Count of elements : 1101 Stream size : 29.5 KiB (0%) Title : German Language : German Default : No Forced : No Text #7 ID : 9 Format : UTF-8 Codec ID : S_TEXT/UTF8 Codec ID/Info : UTF-8 Plain Text Duration : 2 h 8 min Bit rate : 56 b/s Count of elements : 1117 Stream size : 53.3 KiB (0%) Title : Greek Language : Greek Default : No Forced : No Text #8 ID : 10 Format : UTF-8 Codec ID : S_TEXT/UTF8 Codec ID/Info : UTF-8 Plain Text Duration : 2 h 8 min Bit rate : 35 b/s Count of elements : 1202 Stream size : 33.5 KiB (0%) Title : Spanish Language : Spanish Default : No Forced : No Text #9 ID : 11 Format : UTF-8 Codec ID : S_TEXT/UTF8 Codec ID/Info : UTF-8 Plain Text Duration : 2 h 8 min Bit rate : 33 b/s Count of elements : 1250 Stream size : 31.7 KiB (0%) Title : European Spanish Language : Spanish Default : No Forced : No Text #10 ID : 12 Format : UTF-8 Codec ID : S_TEXT/UTF8 Codec ID/Info : UTF-8 Plain Text Duration : 2 h 8 min Bit rate : 31 b/s Count of elements : 1081 Stream size : 30.0 KiB (0%) Title : Finnish Language : Finnish Default : No Forced : No Text #11 ID : 13 Format : UTF-8 Codec ID : S_TEXT/UTF8 Codec ID/Info : UTF-8 Plain Text Duration : 2 h 8 min Bit rate : 31 b/s Count of elements : 1270 Stream size : 29.8 KiB (0%) Title : French Language : French Default : No Forced : No Text #12 ID : 14 Format : UTF-8 Codec ID : S_TEXT/UTF8 Codec ID/Info : UTF-8 Plain Text Duration : 2 h 3 min Bit rate : 55 b/s Count of elements : 1243 Stream size : 50.7 KiB (0%) Title : Hebrew Language : Hebrew Default : No Forced : No Text #13 ID : 15 Format : UTF-8 Codec ID : S_TEXT/UTF8 Codec ID/Info : UTF-8 Plain Text Duration : 2 h 8 min Bit rate : 97 b/s Count of elements : 1278 Stream size : 91.8 KiB (0%) Title : Hindi Language : Hindi Default : No Forced : No Text #14 ID : 16 Format : UTF-8 Codec ID : S_TEXT/UTF8 Codec ID/Info : UTF-8 Plain Text Duration : 2 h 8 min Bit rate : 33 b/s Count of elements : 1263 Stream size : 31.9 KiB (0%) Title : Hungarian Language : Hungarian Default : No Forced : No Text #15 ID : 17 Format : UTF-8 Codec ID : S_TEXT/UTF8 Codec ID/Info : UTF-8 Plain Text Duration : 2 h 8 min Bit rate : 37 b/s Count of elements : 1274 Stream size : 35.6 KiB (0%) Title : Indonesian Language : Indonesian Default : No Forced : No Text #16 ID : 18 Format : UTF-8 Codec ID : S_TEXT/UTF8 Codec ID/Info : UTF-8 Plain Text Duration : 2 h 8 min Bit rate : 35 b/s Count of elements : 1223 Stream size : 33.0 KiB (0%) Title : Italian Language : Italian Default : No Forced : No Text #17 ID : 19 Format : UTF-8 Codec ID : S_TEXT/UTF8 Codec ID/Info : UTF-8 Plain Text Duration : 2 h 8 min Bit rate : 32 b/s Count of elements : 1094 Stream size : 30.2 KiB (0%) Title : Japanese Language : Japanese Default : No Forced : No Text #18 ID : 20 Format : UTF-8 Codec ID : S_TEXT/UTF8 Codec ID/Info : UTF-8 Plain Text Duration : 2 h 8 min Bit rate : 42 b/s Count of elements : 1277 Stream size : 39.6 KiB (0%) Title : Korean Language : Korean Default : No Forced : No Text #19 ID : 21 Format : UTF-8 Codec ID : S_TEXT/UTF8 Codec ID/Info : UTF-8 Plain Text Duration : 2 h 8 min Bit rate : 27 b/s Count of elements : 1212 Stream size : 26.3 KiB (0%) Title : Norwegian Language : Norwegian Bokmal Default : No Forced : No Text #20 ID : 22 Format : UTF-8 Codec ID : S_TEXT/UTF8 Codec ID/Info : UTF-8 Plain Text Duration : 2 h 8 min Bit rate : 32 b/s Count of elements : 1114 Stream size : 30.4 KiB (0%) Title : Dutch Language : Dutch Default : No Forced : No Text #21 ID : 23 Format : UTF-8 Codec ID : S_TEXT/UTF8 Codec ID/Info : UTF-8 Plain Text Duration : 2 h 8 min Bit rate : 29 b/s Count of elements : 1237 Stream size : 27.9 KiB (0%) Title : Polish Language : Polish Default : No Forced : No Text #22 ID : 24 Format : UTF-8 Codec ID : S_TEXT/UTF8 Codec ID/Info : UTF-8 Plain Text Duration : 2 h 8 min Bit rate : 36 b/s Count of elements : 1263 Stream size : 34.3 KiB (0%) Title : Portuguese Language : Portuguese Default : No Forced : No Text #23 ID : 25 Format : UTF-8 Codec ID : S_TEXT/UTF8 Codec ID/Info : UTF-8 Plain Text Duration : 2 h 8 min Bit rate : 35 b/s Count of elements : 1257 Stream size : 33.2 KiB (0%) Title : Brazilian Portuguese Language : Portuguese Default : No Forced : No Text #24 ID : 26 Format : UTF-8 Codec ID : S_TEXT/UTF8 Codec ID/Info : UTF-8 Plain Text Duration : 2 h 8 min Bit rate : 34 b/s Count of elements : 1246 Stream size : 32.3 KiB (0%) Title : Romanian Language : Romanian Default : No Forced : No Text #25 ID : 27 Format : UTF-8 Codec ID : S_TEXT/UTF8 Codec ID/Info : UTF-8 Plain Text Duration : 2 h 8 min Bit rate : 55 b/s Count of elements : 1095 Stream size : 52.0 KiB (0%) Title : Russian Language : Russian Default : No Forced : No Text #26 ID : 28 Format : UTF-8 Codec ID : S_TEXT/UTF8 Codec ID/Info : UTF-8 Plain Text Duration : 2 h 8 min Bit rate : 32 b/s Count of elements : 961 Stream size : 30.8 KiB (0%) Title : Swedish Language : Swedish Default : No Forced : No Text #27 ID : 29 Format : UTF-8 Codec ID : S_TEXT/UTF8 Codec ID/Info : UTF-8 Plain Text Duration : 2 h 8 min Bit rate : 89 b/s Count of elements : 1270 Stream size : 84.8 KiB (0%) Title : Thai Language : Thai Default : No Forced : No Text #28 ID : 30 Format : UTF-8 Codec ID : S_TEXT/UTF8 Codec ID/Info : UTF-8 Plain Text Duration : 2 h 8 min Bit rate : 30 b/s Count of elements : 1271 Stream size : 28.4 KiB (0%) Title : Turkish Language : Turkish Default : No Forced : No Text #29 ID : 31 Format : UTF-8 Codec ID : S_TEXT/UTF8 Codec ID/Info : UTF-8 Plain Text Duration : 2 h 8 min Bit rate : 49 b/s Count of elements : 1271 Stream size : 46.6 KiB (0%) Title : Vietnamese Language : Vietnamese Default : No Forced : No Text #30 ID : 32 Format : UTF-8 Codec ID : S_TEXT/UTF8 Codec ID/Info : UTF-8 Plain Text Duration : 2 h 8 min Bit rate : 34 b/s Count of elements : 1271 Stream size : 32.9 KiB (0%) Title : Simplified Chinese Language : Chinese Default : No Forced : No Text #31 ID : 33 Format : UTF-8 Codec ID : S_TEXT/UTF8 Codec ID/Info : UTF-8 Plain Text Duration : 2 h 8 min Bit rate : 35 b/s Count of elements : 1272 Stream size : 33.5 KiB (0%) Title : Traditional Chinese Language : Chinese Default : No Forced : No

Videos Add media

The Red Sea Diving Resort | Official Trailer | Netflix
The Red Sea Diving Resort | Official Trailer | Net...