The Rake

The Rake

Hot
#2 Fool#2 Fool   May 25, 2018  
Add to list
The Rake

Movie info

Title
Confirmed and upcoming movie titles only! Search before adding to avoid dupes.
The Rake
Year
The year the movie is set to be released.
2018
Director
Genre
Pick one or multiple movie genres.
Cinema release
First cinema release date in any country.
June 05, 2018
Description
Tony Wash’s horror flick starring Shenae Grimes-Beech, Izabella Miko, and Rachel Melvin.
Where you watch

Where you watch Email alert

Yes, it is available and reported below. Use the alert button to get notified when higher quality versions are available.

Download and stream reports

Can I download or stream The Rake? Yes. Reports of pirated torrents and streams are available below.
When will The Rake be available on digital platforms like iTunes, Amazon or Apple+? As of now, there's no release date announced. This includes iTunes, Amazon, Blu-Ray and DVD.

March 06, 2020
The.Rake.2018.1080p.BluRay.REMUX.AVC.DTS-HD.MA.5.1-FGT
Video and audio quality: 5/5 | Source: BluRay

Submitted by: Mr. Meeseeks | Trust Rank level: Supreme Member
Format: Torrent | Site: RARBG
Video ID : 1 Format : AVC Format/Info : Advanced Video Codec Format profile : High@L4.1 Format settings : CABAC / 2 Ref Frames Format settings, CABAC : Yes Format settings, Reference frames : 2 frames Codec ID : V_MPEG4/ISO/AVC Duration : 1 h 18 min Bit rate mode : Variable Bit rate : 21.6 Mb/s Maximum bit rate : 30.2 Mb/s Width : 1 920 pixels Height : 1 080 pixels Display aspect ratio : 16:9 Frame rate mode : Constant Frame rate : 23.976 (24000/1001) FPS Color space : YUV Chroma subsampling : 4:2:0 Bit depth : 8 bits Scan type : Progressive Bits/(Pixel*Frame) : 0.435 Stream size : 11.9 GiB (95%) Title : The.Rake.2018.1080p.BluRay.REMUX.AVC.DTS-HD.MA.5.1-FGT Language : English Default : No Forced : No Audio ID : 2 Format : DTS XLL Format/Info : Digital Theater Systems Commercial name : DTS-HD Master Audio Codec ID : A_DTS Duration : 1 h 18 min Bit rate mode : Variable Bit rate : 1 247 kb/s Channel(s) : 6 channels Channel layout : C L R Ls Rs LFE Sampling rate : 48.0 kHz Frame rate : 93.750 FPS (512 SPF) Bit depth : 16 bits Compression mode : Lossless Stream size : 703 MiB (5%) Title : The.Rake.2018.1080p.BluRay.REMUX.AVC.DTS-HD.MA.5.1-FGT Language : English Default : Yes Forced : No
May 26, 2018
The.Rake.2018.DVDRip.XviD.AC3-EVO
Video and audio quality: 5/5 | Source: DVD

Submitted by: Mr. Meeseeks | Trust Rank level: Supreme Member
Format: Torrent | Site: TorrentingMe
ViDEO: 1900 Kbps -2 Passes RESOLUTiON: 720x304 RUNTiME: 1h 18m 43s SUBTiTLES: No. AUDiO: 448 Kbps AC3 5.1 LANGUAGE: ENGLiSH ENCODER: DdHD

Videos Add media

THE RAKE (2018) Exclusive World Trailer Premiere HD
THE RAKE (2018) Exclusive World Trailer Premiere H...