The Poison Rose

The Poison Rose

Hot
Ivana 🌿Ivana 🌿   May 09, 2019  
Add to list
The Poison Rose

Movie info

TITLE
Confirmed and upcoming movie titles only! Search before adding to avoid dupes.
The Poison Rose
YEAR
The year the movie is set to be released.
2019
DIRECTOR
GENRE
Pick one or multiple movie genres.
CINEMA
First cinema release date in any country.
May 24, 2019
DESCRIPTION
Starring John Travolta, Morgan Freeman, Famke Janssen, Robert Patrick, Peter Stormare and Brendan Fraser.
WHERE YOU WATCH

Where you watch Email alert

The movie is online and reported below, Use the alert button to get notified when higher quality versions are available.

Reports

Is The Poison Rose available online? Yes. Reports of pirated torrents and streams are available below.
When will The Poison Rose be available on digital platforms like iTunes or Amazon? As of now, there's no release data announced. This includes iTunes, Amazon, Blu-Ray and DVD.

June 07, 2019
The.Poison.Rose.2019.1080p.BluRay.x264.DTS-HD.MA.5.1-FGT
Video and audio quality: 5/5 | Source: BluRay

Submitted by: Mr. Meeseeks | Trust Rank level: Supreme Member
Format: Torrent | Site: RARBG
Video ID : 1 Format : AVC Format/Info : Advanced Video Codec Format profile : [email protected] Format settings : CABAC / 5 Ref Frames Format settings, CABAC : Yes Format settings, ReFrames : 5 frames Codec ID : V_MPEG4/ISO/AVC Duration : 1 h 37 min Bit rate : 8 955 kb/s Width : 1 920 pixels Height : 816 pixels Display aspect ratio : 2.35:1 Frame rate mode : Constant Frame rate : 23.976 (24000/1001) FPS Color space : YUV Chroma subsampling : 4:2:0 Bit depth : 8 bits Scan type : Progressive Bits/(Pixel*Frame) : 0.238 Stream size : 6.12 GiB (70%) Title : The.Poison.Rose.2019.1080p.BluRay.x264.DTS-HD.MA.5.1-FGT Writing library : x264 core 157 r2970 5493be8 Encoding settings : cabac=1 / ref=5 / deblock=1:-3:-3 / analyse=0x3:0x113 / me=umh / subme=8 / psy=1 / psy_rd=1.00:0.00 / mixed_ref=1 / me_range=32 / chroma_me=1 / trellis=2 / 8x8dct=1 / cqm=0 / deadzone=21,11 / fast_pskip=1 / chroma_qp_offset=-2 / threads=25 / lookahead_threads=4 / sliced_threads=0 / nr=0 / decimate=1 / interlaced=0 / bluray_compat=0 / constrained_intra=0 / bframes=3 / b_pyramid=2 / b_adapt=2 / b_bias=0 / direct=3 / weightb=1 / open_gop=0 / weightp=2 / keyint=240 / keyint_min=24 / scenecut=40 / intra_refresh=0 / rc_lookahead=50 / rc=2pass / mbtree=1 / bitrate=8955 / ratetol=1.0 / qcomp=0.60 / qpmin=0 / qpmax=69 / qpstep=4 / cplxblur=20.0 / qblur=0.5 / ip_ratio=1.40 / aq=3:0.80 Default : Yes Forced : No Audio ID : 2 Format : DTS XLL Format/Info : Digital Theater Systems Commercial name : DTS-HD Master Audio Codec ID : A_DTS Duration : 1 h 37 min Bit rate mode : Variable Bit rate : 3 816 kb/s Channel(s) : 6 channels Channel layout : C L R Ls Rs LFE Sampling rate : 48.0 kHz Frame rate : 93.750 FPS (512 SPF) Bit depth : 24 bits Compression mode : Lossless Stream size : 2.61 GiB (30%) Title : The.Poison.Rose.2019.1080p.BluRay.x264.DTS-HD.MA.5.1-FGT Language : English Default : Yes Forced : No Text #1 ID : 3 Format : UTF-8 Codec ID : S_TEXT/UTF8 Codec ID/Info : UTF-8 Plain Text Duration : 1 h 31 min Bit rate : 57 b/s Count of elements : 1303 Stream size : 38.4 KiB (0%) Title : English-SRT Language : English Default : Yes Forced : No Text #2 ID : 4 Format : UTF-8 Codec ID : S_TEXT/UTF8 Codec ID/Info : UTF-8 Plain Text Duration : 1 h 32 min Bit rate : 59 b/s Count of elements : 1418 Stream size : 40.5 KiB (0%) Title : English-SDH-SRT Language : English Default : No Forced : No Text #3 ID : 5 Format : PGS Muxing mode : zlib Codec ID : S_HDMV/PGS Codec ID/Info : Picture based subtitle format used on BDs/HD-DVDs Duration : 1 h 32 min Bit rate : 28.5 kb/s Count of elements : 2836 Stream size : 18.9 MiB (0%) Title : English-PGS Language : English Default : No Forced : No Text #4 ID : 6 Format : PGS Muxing mode : zlib Codec ID : S_HDMV/PGS Codec ID/Info : Picture based subtitle format used on BDs/HD-DVDs Duration : 1 h 31 min Bit rate : 33.6 kb/s Count of elements : 2926 Stream size : 22.0 MiB (0%) Title : French-PGS Language : French Default : No Forced : No
May 24, 2019
The.Poison.Rose.2019.HDRip.AC3.X264-CMRG
Video and audio quality: 5/5 | Source: Official web stream

Submitted by: Mr. Meeseeks | Trust Rank level: Supreme Member
Format: Torrent | Site: 1337x
[Video Bitrate]:.............: 1934kb/s [Duration]:.............: 1 h 37 min [Video Codec]:.............: AVC [Resolution]:.............: 720x304 px [Aspect Ratio]:.............: 2.35:1 [Audio Codec]:.............: AC-3 [Audio Bitrate]:.............: 384kb/s [Audio Channels]:.............: 5.1ch [Audio Language]:.............: English

Videos Add media

THE POISON ROSE Official Trailer (2019) John Travolta, Morgan Freeman Movie HD
THE POISON ROSE Official Trailer (2019) John Travo...