The Pez Outlaw

The Pez Outlaw

Mr. MeeseeksMr. Meeseeks   September 24, 2022  
Add to list
The Pez Outlaw

Movie info

Title
Confirmed and upcoming movie titles only! Search before adding to avoid dupes.
The Pez Outlaw
Year
The year the movie is set to be released.
2022
Director
Amy Bandlien Storkel & Bryan Storkel
Genre
Pick one or multiple movie genres.
Digital release
Official digital release date on services such as iTunes, Amazon, Netflix. It's the first known release date, without any country restriction. So if it's out on iTunes Russia first, this would be the digital release date.
October 21, 2022
Description
A documentary film about Steve Glew, a man who smuggled Pez candy dispensers into America from Eastern Europe.
Where you watch

Where you watch Email alert

Yes, it is available and reported below. Use the alert button to get notified when higher quality versions are available.

Download and stream reports

Is there a The Pez Outlaw torrent? Yes. Reports are available below.
When will The Pez Outlaw be available on VOD? It's set for a October 21, 2022 release.

October 21, 2022
The.Pez.Outlaw.2022.1080p.WEBRip.DD5.1.x264-CM
Video and audio quality: 5/5 | Source: Official web stream

Submitted by: Mr. Meeseeks | Trust Rank level: Supreme Member
Format: Torrent | Site: RARBG
Video ID : 1 Format : AVC Format/Info : Advanced Video Codec Format profile : High@L4 Format settings : CABAC / 5 Ref Frames Format settings, CABAC : Yes Format settings, Reference frames : 5 frames Codec ID : V_MPEG4/ISO/AVC Duration : 1 h 27 min Bit rate : 6 750 kb/s Width : 1 918 pixels Height : 788 pixels Display aspect ratio : 2.40:1 Frame rate mode : Constant Frame rate : 23.976 (24000/1001) FPS Color space : YUV Chroma subsampling : 4:2:0 Bit depth : 8 bits Scan type : Progressive Bits/(Pixel*Frame) : 0.186 Stream size : 4.11 GiB (95%) Language : English Default : Yes Forced : No Color range : Limited Color primaries : BT.709 Transfer characteristics : BT.709 Matrix coefficients : BT.709 Audio ID : 2 Format : AC-3 Format/Info : Audio Coding 3 Commercial name : Dolby Digital Codec ID : A_AC3 Duration : 1 h 27 min Bit rate mode : Constant Bit rate : 384 kb/s Channel(s) : 6 channels Channel layout : L R C LFE Ls Rs Sampling rate : 48.0 kHz Frame rate : 31.250 FPS (1536 SPF) Compression mode : Lossy Stream size : 240 MiB (5%) Language : English Service kind : Complete Main Default : Yes Forced : No

Videos Add media

The Pez Outlaw - Official Trailer
The Pez Outlaw - Official Trailer