The Perfect Date

The Perfect Date

Hot
Mr. MeeseeksMr. Meeseeks   March 26, 2019  
News (0)
Add to list
The Perfect Date

Movie info

TITLE
Confirmed and upcoming movie titles only! Search before adding to avoid dupes.
YEAR
The year the movie is set to be released.
2019
DIRECTOR
GENRE
Pick one or multiple movie genres.
CINEMA
First cinema release date in any country.
April 12, 2019
DESCRIPTION
Starring Noah Centineo, Laura Marano, Camila Mendes, Odiseas Georgiadis, Matt Walsh, and Evan Castelloe.
WHERE YOU WATCH

Where you watch Email alert

The movie is online and reported below, Use the alert button to get notified when higher quality versions are available.

Reports

April 12, 2019
The.Perfect.Date.2019.1080p.NF.WEBRip.DDP5.1.x264-NTG
Video and audio quality: 5/5 | Source: Official web stream

Submitted by: Mr. Meeseeks | Trust Rank level: Supreme Member
Format: Torrent | Site: RARBG
Video ID : 1 Format : AVC Format/Info : Advanced Video Codec Format profile : [email protected] Format settings : CABAC / 3 Ref Frames Format settings, CABAC : Yes Format settings, ReFrames : 3 frames Codec ID : V_MPEG4/ISO/AVC Duration : 1 h 30 min Bit rate mode : Variable Bit rate : 3 010 kb/s Maximum bit rate : 4 515 kb/s Width : 1 920 pixels Height : 1 080 pixels Display aspect ratio : 16:9 Frame rate mode : Constant Frame rate : 23.976 (24000/1001) FPS Color space : YUV Chroma subsampling : 4:2:0 Bit depth : 8 bits Scan type : Progressive Bits/(Pixel*Frame) : 0.061 Stream size : 1.89 GiB (82%) Writing library : x264 core 148 r2715 7e75228 Encoding settings : cabac=1 / ref=3 / deblock=1:0:0 / analyse=0x1:0x111 / me=umh / subme=10 / psy=1 / psy_rd=1.00:0.00 / mixed_ref=1 / me_range=24 / chroma_me=1 / trellis=2 / 8x8dct=0 / cqm=0 / deadzone=21,11 / fast_pskip=1 / chroma_qp_offset=-2 / threads=8 / lookahead_threads=1 / sliced_threads=0 / nr=0 / decimate=1 / interlaced=0 / bluray_compat=0 / stitchable=1 / constrained_intra=0 / bframes=2 / b_pyramid=0 / b_adapt=2 / b_bias=0 / direct=3 / weightb=1 / open_gop=0 / weightp=2 / keyint=48 / keyint_min=25 / scenecut=0 / intra_refresh=0 / rc_lookahead=48 / rc=2pass / mbtree=1 / bitrate=3010 / ratetol=1.0 / qcomp=0.50 / qpmin=6 / qpmax=51 / qpstep=4 / cplxblur=20.0 / qblur=0.5 / vbv_maxrate=4515 / vbv_bufsize=6020 / nal_hrd=vbr / filler=0 / ip_ratio=1.40 / aq=1:1.00 Default : Yes Forced : No Audio ID : 2 Format : E-AC-3 Format/Info : Enhanced AC-3 Commercial name : Dolby Digital Plus Codec ID : A_EAC3 Duration : 1 h 30 min Bit rate mode : Constant Bit rate : 640 kb/s Channel(s) : 6 channels Channel layout : L R C LFE Ls Rs Sampling rate : 48.0 kHz Frame rate : 31.250 FPS (1536 SPF) Compression mode : Lossy Stream size : 415 MiB (18%) Title : English Language : English Service kind : Complete Main Default : Yes Forced : No Text #1 ID : 3 Format : UTF-8 Codec ID : S_TEXT/UTF8 Codec ID/Info : UTF-8 Plain Text Duration : 1 h 29 min Bit rate : 90 b/s Count of elements : 1569 Stream size : 59.2 KiB (0%) Language : English Default : No Forced : No Text #2 ID : 4 Format : UTF-8 Codec ID : S_TEXT/UTF8 Codec ID/Info : UTF-8 Plain Text Duration : 1 h 29 min Bit rate : 93 b/s Count of elements : 1663 Stream size : 61.3 KiB (0%) Title : SDH Language : English Default : No Forced : No Text #3 ID : 5 Format : UTF-8 Codec ID : S_TEXT/UTF8 Codec ID/Info : UTF-8 Plain Text Duration : 1 h 24 min Bit rate : 163 b/s Count of elements : 1490 Stream size : 101 KiB (0%) Language : Arabic Default : No Forced : No Text #4 ID : 6 Format : UTF-8 Codec ID : S_TEXT/UTF8 Codec ID/Info : UTF-8 Plain Text Duration : 1 h 24 min Bit rate : 73 b/s Count of elements : 1258 Stream size : 45.6 KiB (0%) Language : Czech Default : No Forced : No Text #5 ID : 7 Format : UTF-8 Codec ID : S_TEXT/UTF8 Codec ID/Info : UTF-8 Plain Text Duration : 1 h 24 min Bit rate : 80 b/s Count of elements : 1445 Stream size : 49.8 KiB (0%) Language : Danish Default : No Forced : No Text #6 ID : 8 Format : UTF-8 Codec ID : S_TEXT/UTF8 Codec ID/Info : UTF-8 Plain Text Duration : 1 h 24 min Bit rate : 82 b/s Count of elements : 1491 Stream size : 50.6 KiB (0%) Language : German Default : No Forced : No Text #7 ID : 9 Format : UTF-8 Codec ID : S_TEXT/UTF8 Codec ID/Info : UTF-8 Plain Text Duration : 1 h 24 min Bit rate : 132 b/s Count of elements : 1453 Stream size : 81.6 KiB (0%) Language : Greek Default : No Forced : No Text #8 ID : 10 Format : UTF-8 Codec ID : S_TEXT/UTF8 Codec ID/Info : UTF-8 Plain Text Duration : 1 h 24 min Bit rate : 84 b/s Count of elements : 1455 Stream size : 52.2 KiB (0%) Language : Spanish Default : No Forced : No Text #9 ID : 11 Format : UTF-8 Codec ID : S_TEXT/UTF8 Codec ID/Info : UTF-8 Plain Text Duration : 1 h 24 min Bit rate : 74 b/s Count of elements : 1491 Stream size : 45.7 KiB (0%) Title : European Language : Spanish Default : No Forced : No Text #10 ID : 12 Format : UTF-8 Codec ID : S_TEXT/UTF8 Codec ID/Info : UTF-8 Plain Text Duration : 1 h 24 min Bit rate : 82 b/s Count of elements : 1439 Stream size : 51.0 KiB (0%) Language : Finnish Default : No Forced : No Text #11 ID : 13 Format : UTF-8 Codec ID : S_TEXT/UTF8 Codec ID/Info : UTF-8 Plain Text Duration : 1 h 24 min Bit rate : 88 b/s Count of elements : 1481 Stream size : 54.3 KiB (0%) Language : French Default : No Forced : No Text #12 ID : 14 Format : UTF-8 Codec ID : S_TEXT/UTF8 Codec ID/Info : UTF-8 Plain Text Duration : 1 h 24 min Bit rate : 134 b/s Count of elements : 1362 Stream size : 82.9 KiB (0%) Language : Hebrew Default : No Forced : No Text #13 ID : 15 Format : UTF-8 Codec ID : S_TEXT/UTF8 Codec ID/Info : UTF-8 Plain Text Duration : 1 h 24 min Bit rate : 231 b/s Count of elements : 1492 Stream size : 143 KiB (0%) Language : Hindi Default : No Forced : No Text #14 ID : 16 Format : UTF-8 Codec ID : S_TEXT/UTF8 Codec ID/Info : UTF-8 Plain Text Duration : 1 h 24 min Bit rate : 80 b/s Count of elements : 1489 Stream size : 49.4 KiB (0%) Language : Hungarian Default : No Forced : No Text #15 ID : 17 Format : UTF-8 Codec ID : S_TEXT/UTF8 Codec ID/Info : UTF-8 Plain Text Duration : 1 h 24 min Bit rate : 88 b/s Count of elements : 1495 Stream size : 54.5 KiB (0%) Language : Indonesian Default : No Forced : No Text #16 ID : 18 Format : UTF-8 Codec ID : S_TEXT/UTF8 Codec ID/Info : UTF-8 Plain Text Duration : 1 h 24 min Bit rate : 88 b/s Count of elements : 1482 Stream size : 54.6 KiB (0%) Language : Italian Default : No Forced : No Text #17 ID : 19 Format : UTF-8 Codec ID : S_TEXT/UTF8 Codec ID/Info : UTF-8 Plain Text Duration : 1 h 24 min Bit rate : 89 b/s Count of elements : 1517 Stream size : 55.1 KiB (0%) Language : Japanese Default : No Forced : No Text #18 ID : 20 Format : UTF-8 Codec ID : S_TEXT/UTF8 Codec ID/Info : UTF-8 Plain Text Duration : 1 h 24 min Bit rate : 99 b/s Count of elements : 1503 Stream size : 61.5 KiB (0%) Language : Korean Default : No Forced : No Text #19 ID : 21 Format : UTF-8 Codec ID : S_TEXT/UTF8 Codec ID/Info : UTF-8 Plain Text Duration : 1 h 24 min Bit rate : 84 b/s Count of elements : 1482 Stream size : 52.1 KiB (0%) Language : Norwegian Bokmal Default : No Forced : No Text #20 ID : 22 Format : UTF-8 Codec ID : S_TEXT/UTF8 Codec ID/Info : UTF-8 Plain Text Duration : 1 h 24 min Bit rate : 81 b/s Count of elements : 1480 Stream size : 50.3 KiB (0%) Language : Dutch Default : No Forced : No Text #21 ID : 23 Format : UTF-8 Codec ID : S_TEXT/UTF8 Codec ID/Info : UTF-8 Plain Text Duration : 1 h 24 min Bit rate : 79 b/s Count of elements : 1489 Stream size : 49.2 KiB (0%) Language : Polish Default : No Forced : No Text #22 ID : 24 Format : UTF-8 Codec ID : S_TEXT/UTF8 Codec ID/Info : UTF-8 Plain Text Duration : 1 h 24 min Bit rate : 86 b/s Count of elements : 1475 Stream size : 53.5 KiB (0%) Language : Portuguese Default : No Forced : No Text #23 ID : 25 Format : UTF-8 Codec ID : S_TEXT/UTF8 Codec ID/Info : UTF-8 Plain Text Duration : 1 h 24 min Bit rate : 86 b/s Count of elements : 1496 Stream size : 53.0 KiB (0%) Title : Brazilian Language : Portuguese Default : No Forced : No Text #24 ID : 26 Format : UTF-8 Codec ID : S_TEXT/UTF8 Codec ID/Info : UTF-8 Plain Text Duration : 1 h 24 min Bit rate : 92 b/s Count of elements : 1483 Stream size : 56.8 KiB (0%) Language : Romanian Default : No Forced : No Text #25 ID : 27 Format : UTF-8 Codec ID : S_TEXT/UTF8 Codec ID/Info : UTF-8 Plain Text Duration : 1 h 24 min Bit rate : 137 b/s Count of elements : 1489 Stream size : 84.4 KiB (0%) Language : Russian Default : No Forced : No Text #26 ID : 28 Format : UTF-8 Codec ID : S_TEXT/UTF8 Codec ID/Info : UTF-8 Plain Text Duration : 1 h 24 min Bit rate : 86 b/s Count of elements : 1370 Stream size : 53.5 KiB (0%) Language : Swedish Default : No Forced : No Text #27 ID : 29 Format : UTF-8 Codec ID : S_TEXT/UTF8 Codec ID/Info : UTF-8 Plain Text Duration : 1 h 24 min Bit rate : 206 b/s Count of elements : 1485 Stream size : 127 KiB (0%) Language : Thai Default : No Forced : No Text #28 ID : 30 Format : UTF-8 Codec ID : S_TEXT/UTF8 Codec ID/Info : UTF-8 Plain Text Duration : 1 h 24 min Bit rate : 89 b/s Count of elements : 1481 Stream size : 55.4 KiB (0%) Language : Turkish Default : No Forced : No Text #29 ID : 31 Format : UTF-8 Codec ID : S_TEXT/UTF8 Codec ID/Info : UTF-8 Plain Text Duration : 1 h 24 min Bit rate : 133 b/s Count of elements : 1492 Stream size : 82.5 KiB (0%) Language : Vietnamese Default : No Forced : No Text #30 ID : 32 Format : UTF-8 Codec ID : S_TEXT/UTF8 Codec ID/Info : UTF-8 Plain Text Duration : 1 h 24 min Bit rate : 84 b/s Count of elements : 1488 Stream size : 52.1 KiB (0%) Title : Simplified Language : Chinese Default : No Forced : No Text #31 ID : 33 Format : UTF-8 Codec ID : S_TEXT/UTF8 Codec ID/Info : UTF-8 Plain Text Duration : 1 h 24 min Bit rate : 84 b/s Count of elements : 1487 Stream size : 52.3 KiB (0%) Title : Traditional Language : Chinese Default : No Forced : No

Videos Add media

The Perfect Date | Official Trailer [HD] | Netflix
The Perfect Date | Official Trailer [HD] | Netflix

Movie News

There are no member news items for this movie.
To write a comment please register or